Anonymous, добрый день, присоединяйтесь к нам в Telegram!, здесь всегда актуальный адрес сайта, оперативная поддержка и многое другое!

>

5.6

iTunes

7.4

iTunes

7.9

MVO

1

7.7

1 сезон

6.8

iTunes

7.3

1 сезон

13

6.7

1 сезон

8.3

RePack

30

ОНЛАЙН

pack

9.9

Лицензия

ВАЖНО

ИГРА 18+

pack

7.3

RePack

MK11

7.7

RePack

jed

7.8

RePack

fifa19

8.5

RePack

RDR2

RePack

NEED FOR SPEED™ PAYBACK

4 сезон

9 сезон

Бесстыжие 9 сезон

Все сериалы

все сериалы на PB.wtf

RePack

FAR CRY 5

Anonymous, добрый день, мы катастрофически не успеваем собрать деньги на оплату серверов, помогите нам пожалуйста 5,10,15р., для нас важна любая помощь . В качестве благодарности мы отключим Вам всю рекламу на сайте (укажите свой ник в строку Ваше имя)!

×
  
Magnet ссылка

Проект «Анна Николаевна» / Сезон: 2 / Серии: 1-6 из 8 (Максим Пежемский, Александр Карпиловский) [2021, Комедия, фантастика, драма, WEBRip 1080p, (Версия 18+)] pb.wtf

Проект «Анна Николаевна» через торрент pb.wtf

Раздают: 5 [ 139 KB/s ] Качают: 5 [ 0 KB/s ]
Размер: 13.86 GB | Добавлен: 6 д. назад | Торрент скачан:15 раз
Смотреть онлайн Проект «Анна Николаевна» | Скачать    Ребята, помогите собрать деньги на оплату серверов!!!

15-09-2021 22:27 Проект «Анна Николаевна» Скачать торрент  

Проект «Анна Николаевна»
Год выпуска: 2021
Страна: Россия
Выпущено: КиноПоиск HD, Продюсерская компания «Среда»
Жанр: Комедия, фантастика, драма
Продолжительность: ~ 00:39:00
Субтитры: Русские
Версия 18+.

Режиссер: Максим Пежемский, Александр Карпиловский

rating

В ролях: Зоя Бербер, Антон Филипенко, Сергей Гармаш, Кузьма Сапрыкин, Фёдор Лавров, Маруся Климова, Антон Васильев, Никита Тарасов, Анна Котова, Ирина Розанова

Описание: Продолжение народной сай-фай комедии о приключениях идеальной во всех отношениях женщины-андроида на службе в российской полиции. В новом сезоне команду подполковника Галузо за хорошую работу переведут в Москву, а в качестве гида по большому городу к ним прикрепят ту самую Анну Николаевну Королькевич, с которой проектировали полицейского-андроида. Следователи Мокрый и Ляпин будут бороться с преступностью и московским ханжеством, а выживший после драматичных событий в финале первого сезона майор Пожарский обнаружит себя в любовном четырехугольнике.

Качество: WEBRip 1080p
Формат: MKV

Видео: MPEG4 AVC Video, H264, 2.40:1, 1920x804, 25 fps, ~6000 kbps, 0.155 bit/pixel
Аудио #01: Русский, E-AC3, 6 ch, 448 kbps, 16 bits, 48.0 KHz | C цензурой
Аудио #02: Русский, E-AC3, 6 ch, 448 kbps, 16 bits, 48.0 KHz | без цензуры, 18+
скриншот  скриншот  скриншот  скриншот  

скриншот  скриншот  скриншот  скриншот  

General
Unique ID : 192473289316487809896680193967890256075 (0x90CD01D3DB6C8102A2055E0DA71650CB)
Complete name : D:\Proekt.Anna.Nikolaevna.S02.2021.WEB-DL.(1080p).Getty\Proekt.Anna.Nikolaevna.s02e01.2020.WEB-DL.(1080p).Getty.mkv
Format : Matroska
Format version : Version 4 / Version 2
File size : 1.87 GiB
Duration : 38 min 58 s
Overall bit rate : 6 877 kb/s
Movie name : Proekt.Anna.Nikolaevna.s02e01.2021.WEB-DL.(1080p).Getty
Encoded date : UTC 2021-09-15 21:34:58
Writing application : mkvmerge v7.8.0 ('River Man') 32bit built on Mar 27 2015 16:18:02
Writing library : libebml v1.3.1 + libmatroska v1.4.2

Video
ID : 1
Format : AVC
Format/Info : Advanced Video Codec
Format profile : High@L4
Format settings : CABAC / 5 Ref Frames
Format settings, CABAC : Yes
Format settings, ReFrames : 5 frames
Codec ID : V_MPEG4/ISO/AVC
Duration : 38 min 58 s
Bit rate : 6 000 kb/s
Width : 1 920 pixels
Height : 804 pixels
Display aspect ratio : 2.40:1
Frame rate mode : Constant
Frame rate : 25.000 FPS
Color space : YUV
Chroma subsampling : 4:2:0
Bit depth : 8 bits
Scan type : Progressive
Bits/(Pixel*Frame) : 0.155
Stream size : 1.63 GiB (87%)
Writing library : x264 core 157
Encoding settings : cabac=1 / ref=5 / deblock=1:0:0 / analyse=0x3:0x133 / me=umh / subme=10 / psy=1 / psy_rd=1.00:0.00 / mixed_ref=1 / me_range=24 / chroma_me=1 / trellis=2 / 8x8dct=1 / cqm=0 / deadzone=21,11 / fast_pskip=1 / chroma_qp_offset=-2 / threads=25 / lookahead_threads=4 / sliced_threads=0 / nr=0 / decimate=1 / interlaced=0 / bluray_compat=0 / constrained_intra=0 / bframes=8 / b_pyramid=2 / b_adapt=2 / b_bias=0 / direct=3 / weightb=1 / open_gop=0 / weightp=2 / keyint=200 / keyint_min=100 / scenecut=40 / intra_refresh=0 / rc_lookahead=60 / rc=2pass / mbtree=1 / bitrate=6000 / ratetol=1.0 / qcomp=0.60 / qpmin=0 / qpmax=69 / qpstep=4 / cplxblur=20.0 / qblur=0.5 / vbv_maxrate=6600 / vbv_bufsize=9000 / nal_hrd=none / filler=0 / ip_ratio=1.40 / aq=1:1.00
Default : Yes
Forced : No

Audio #1
ID : 2
Format : E-AC-3
Format/Info : Enhanced Audio Coding 3
Codec ID : A_EAC3
Duration : 38 min 58 s
Bit rate mode : Constant
Bit rate : 448 kb/s
Channel(s) : 6 channels
Channel positions : Front: L C R, Side: L R, LFE
Sampling rate : 48.0 kHz
Frame rate : 187.500 FPS (256 SPF)
Compression mode : Lossy
Stream size : 125 MiB (7%)
Title : С цензурой
Language : Russian
Service kind : Complete Main
Default : Yes
Forced : No

Audio #2
ID : 3
Format : E-AC-3
Format/Info : Enhanced Audio Coding 3
Codec ID : A_EAC3
Duration : 38 min 58 s
Bit rate mode : Constant
Bit rate : 448 kb/s
Channel(s) : 6 channels
Channel positions : Front: L C R, Side: L R, LFE
Sampling rate : 48.0 kHz
Frame rate : 187.500 FPS (256 SPF)
Compression mode : Lossy
Stream size : 125 MiB (7%)
Title : Без цензуры 18+
Language : Russian
Service kind : Complete Main
Default : No
Forced : No

Text
ID : 4
Format : UTF-8
Codec ID : S_TEXT/UTF8
Codec ID/Info : UTF-8 Plain Text
Duration : 38 min 0 s
Bit rate : 121 b/s
Count of elements : 582
Stream size : 34.0 KiB (0%)
Language : Russian
Default : No
Forced : No

Раздача ведётся путём добавления новых серий, при каждом добавлении создаётся новый торрент. Чтобы начать докачку новой серии, пользователям необходимо сделать следующее:

- Остановить скачивание.
- Удалить старый торрент у себя из клиента (старые серии удалять не надо).
- Скачать новый торрент и запустить его у себя в клиенте вместо старого, при этом указать клиенту путь в старую папку куда и должно происходить скачивание новых серий.

Ваш клиент при этом должен произвести хеширование (проверку) старой папки (если не производит сам - помогите ему сделать это), и будет докачивать только те серии которых у вас ещё нет. Старые серии при этом не удаляются, а продолжают раздаваться!
Если вы уже удалили старые серии, то предотвратить повторную закачку старых серий можно, отжав галочку в соответствующих местах при запуске нового торрента. По возможности, желательно не удалять старые серии как можно дольше, чтобы релизер не столько продолжал раздавать старые серии, а смог сконцентрироваться на новых.
pb.wtf



Скачать Проект «Анна Николаевна» через торрент https://i115.fastpic.org/big/2021/0916/13/7ee30d7f275c56de266f0129ab79ee13.jpg Скачать, смотреть онлайн Проект «Анна Николаевна» бесплантно в хорошем качестве Описание: Продолжение народной сай-фай комедии о приключениях идеальной во всех отношениях женщины-андроида на службе в российской полиции. ... 8.5 10 11
Торрент: Зарегистрирован [2021-10-13 22:30] · скачан: 15 раз
Статус: √ проверено
Размер: 13.86 GB
Как cкачать? Как скачать Проект «Анна Николаевна» через торрент | UTorrent

% Раздел Тема Автор DL S | L
Наши сериалы [ 9.84 GB ] Проект «Анна Николаевна» / Сезон: 2 / Серии: 1-6 из 8 [2021 WEBRip 720p ] bober100 Скачать
3 | 1
Наши сериалы [ 25.23 GB ] Проект «Анна Николаевна» / Сезон: 2 / Серии: 1-6 из 8 [2021 WEBRip 2160p ] bober100 Скачать
4 | 2
Зарубежные сериалы [ 6.43 GB ] Проект «Анна Николаевна» / Сезон: 2 / Серии: 1-6 из 8 [2021 WEBRip-AVC ] bober100 Скачать
4 | 2
Наши сериалы [ 5.05 GB ] Проект «Анна Николаевна» / Сезон: 2 / Серии: 1-6 из 8 [2021 WEBRip ] bober100 Скачать
17 | 5

28-11-2019 20:33  

Отключить всю рекламу на сайте

23-09-2021 13:22 Проект «Анна Николаевна» Скачать торрент  

спасибо pb.wtf



    Дорогой пользователь! Огромная просьба, поблагодарите релизера, оцените раздачу и оставьте свои комментарий, если Вы скачали Проект «Анна Николаевна» через торрент бесплатно!
    Комментировать посты могут только пользователи прошедшие не сложную регистрацию
    Показать сообщения:    

    Проект «Анна Николаевна» через торрент
    Скачать бесплатно Проект «Анна Николаевна»
    Проект «Анна Николаевна» скачать торрент
    Проект «Анна Николаевна» смотреть онлайн
    Cкачать фильм Проект «Анна Николаевна» бесплатно
    Проект «Анна Николаевна» скачать торрент в хорошем качестве
    Проект «Анна Николаевна» смотреть онлайн бесплатно в хорошем качестве


    Вы не можете начинать темы
    Вы не можете отвечать на сообщения
    Вы не можете редактировать свои сообщения
    Вы не можете удалять свои сообщения
    Вы не можете голосовать в опросах
    Вы не можете прикреплять файлы к сообщениям
    Вы можете скачивать файлы