Доктор Стрэндж

Лицензия

Добыча

Дубляж

Дом дракона

1 сезон

Тор

Дубляж

В эфире

Дубляж

Там, где раки поют

MVO

Властелин колец

1 сезон

Ultimate

pack

Рекомендуем

30

Пиратка

ВАЖНО

ВАЖНО

Ghostwire

Пиратка

jed

RePack

nioh2

RePack

RDR2

RePack

NEED FOR SPEED™ PAYBACK

RePack

скачать торрент

Кинопоиск HD

Острые козырьки 6 сезон

6 сезон

FAR CRY 6

RePack

скачать торрент

Лицензия

скачать торрент

MVO

1

1 сезон

скачать торрент

1 сезон

скачать торрент

Лицензия

  

Проект «Анна Николаевна» / Сезон: 2 / Серии: 1-8 из 8 (Максим Пежемский, Александр Карпиловский) [2021, Комедия, фантастика, драма, WEBRip 720p, (Версия 18+)]

Проект «Анна Николаевна» через торрент pb.wtf

Раздают: 1 [ 0 KB/s ]
Размер: 13.36 GB | Добавлен: 1 год назад | Торрент скачан:151 раз
Смотреть онлайн | Скачать   

16-09-2021 01:25 Проект «Анна Николаевна» Скачать торрент  

Проект «Анна Николаевна»
Год выпуска: 2021
Страна: Россия
Выпущено: КиноПоиск HD, Продюсерская компания «Среда»
Жанр: Комедия, фантастика, драма
Продолжительность: ~ 00:39:00
Субтитры: Русские
Версия 18+.

Режиссер: Максим Пежемский, Александр Карпиловский

rating

В ролях: Зоя Бербер, Антон Филипенко, Сергей Гармаш, Кузьма Сапрыкин, Фёдор Лавров, Маруся Климова, Антон Васильев, Никита Тарасов, Анна Котова, Ирина Розанова

Описание: Продолжение народной сай-фай комедии о приключениях идеальной во всех отношениях женщины-андроида на службе в российской полиции. В новом сезоне команду подполковника Галузо за хорошую работу переведут в Москву, а в качестве гида по большому городу к ним прикрепят ту самую Анну Николаевну Королькевич, с которой проектировали полицейского-андроида. Следователи Мокрый и Ляпин будут бороться с преступностью и московским ханжеством, а выживший после драматичных событий в финале первого сезона майор Пожарский обнаружит себя в любовном четырехугольнике.

Качество: WEBRip 720p
Формат: MKV

Видео: MPEG4 AVC Video, H264, 2.40:1, 1280x536, 25 fps, ~4000 kbps, 0.233 bit/pixel
Аудио #01: Русский, AC3, 6 ch, 448 kbps, 16 bits, 48.0 KHz | C цензурой
Аудио #02: Русский, AC3, 6 ch, 448 kbps, 16 bits, 48.0 KHz | без цензуры, 18+
скриншот  скриншот  скриншот  скриншот  скриншот  

General
Unique ID : 217016413827502608885458070122684818875 (0xA343D74A8E76F404BF172C30578D25BB)
Complete name : D:\Proekt.Anna.Nikolaevna.S02.2021.WEB-DL.720p.ExKinoRay\Proekt.Anna.Nikolaevna.S02.E01.2021.WEB-DL.720p.ExKinoRay.mkv
Format : Matroska
Format version : Version 2
File size : 1.33 GiB
Duration : 38 min 58 s
Overall bit rate : 4 880 kb/s
Encoded date : UTC 2021-09-15 23:56:34
Writing application : mkvmerge v5.8.0 ('No Sleep / Pillow') built on Sep 2 2012 15:37:04
Writing library : libebml v1.2.3 + libmatroska v1.3.0

Video
ID : 1
Format : AVC
Format/Info : Advanced Video Codec
Format profile : [email protected]
Format settings : CABAC / 6 Ref Frames
Format settings, CABAC : Yes
Format settings, ReFrames : 6 frames
Codec ID : V_MPEG4/ISO/AVC
Duration : 38 min 58 s
Bit rate : 4 000 kb/s
Width : 1 280 pixels
Height : 536 pixels
Display aspect ratio : 2.40:1
Frame rate mode : Constant
Frame rate : 25.000 FPS
Color space : YUV
Chroma subsampling : 4:2:0
Bit depth : 8 bits
Scan type : Progressive
Bits/(Pixel*Frame) : 0.233
Stream size : 1.06 GiB (80%)
Writing library : x264 core 157
Encoding settings : cabac=1 / ref=6 / deblock=1:0:0 / analyse=0x3:0x133 / me=umh / subme=10 / psy=1 / psy_rd=1.00:0.00 / mixed_ref=1 / me_range=24 / chroma_me=1 / trellis=2 / 8x8dct=1 / cqm=0 / deadzone=21,11 / fast_pskip=1 / chroma_qp_offset=-2 / threads=17 / lookahead_threads=2 / sliced_threads=0 / nr=0 / decimate=1 / interlaced=0 / bluray_compat=0 / constrained_intra=0 / bframes=8 / b_pyramid=2 / b_adapt=2 / b_bias=0 / direct=3 / weightb=1 / open_gop=0 / weightp=2 / keyint=200 / keyint_min=100 / scenecut=40 / intra_refresh=0 / rc_lookahead=60 / rc=2pass / mbtree=1 / bitrate=4000 / ratetol=1.0 / qcomp=0.60 / qpmin=0 / qpmax=69 / qpstep=4 / cplxblur=20.0 / qblur=0.5 / vbv_maxrate=4400 / vbv_bufsize=6000 / nal_hrd=none / filler=0 / ip_ratio=1.40 / aq=1:1.00
Language : Russian
Default : Yes
Forced : No

Audio #1
ID : 2
Format : AC-3
Format/Info : Audio Coding 3
Codec ID : A_AC3
Duration : 38 min 58 s
Bit rate mode : Constant
Bit rate : 448 kb/s
Channel(s) : 6 channels
Channel positions : Front: L C R, Side: L R, LFE
Sampling rate : 48.0 kHz
Frame rate : 31.250 FPS (1536 SPF)
Bit depth : 16 bits
Compression mode : Lossy
Stream size : 125 MiB (9%)
Language : Russian
Service kind : Complete Main
Default : Yes
Forced : No

Audio #2
ID : 3
Format : AC-3
Format/Info : Audio Coding 3
Codec ID : A_AC3
Duration : 38 min 58 s
Bit rate mode : Constant
Bit rate : 448 kb/s
Channel(s) : 6 channels
Channel positions : Front: L C R, Side: L R, LFE
Sampling rate : 48.0 kHz
Frame rate : 31.250 FPS (1536 SPF)
Bit depth : 16 bits
Compression mode : Lossy
Stream size : 125 MiB (9%)
Title : 18+
Language : Russian
Service kind : Complete Main
Default : No
Forced : No

Text
ID : 4
Format : UTF-8
Codec ID : S_TEXT/UTF8
Codec ID/Info : UTF-8 Plain Text
Language : Russian
Default : No
Forced : No

Раздача ведётся путём добавления новых серий, при каждом добавлении создаётся новый торрент. Чтобы начать докачку новой серии, пользователям необходимо сделать следующее:

- Остановить скачивание.
- Удалить старый торрент у себя из клиента (старые серии удалять не надо).
- Скачать новый торрент и запустить его у себя в клиенте вместо старого, при этом указать клиенту путь в старую папку куда и должно происходить скачивание новых серий.

Ваш клиент при этом должен произвести хеширование (проверку) старой папки (если не производит сам - помогите ему сделать это), и будет докачивать только те серии которых у вас ещё нет. Старые серии при этом не удаляются, а продолжают раздаваться!
Если вы уже удалили старые серии, то предотвратить повторную закачку старых серий можно, отжав галочку в соответствующих местах при запуске нового торрента. По возможности, желательно не удалять старые серии как можно дольше, чтобы релизер не столько продолжал раздавать старые серии, а смог сконцентрироваться на новых.



Скачать Проект «Анна Николаевна» через торрент https://c.radikal.ru/c28/2109/e3/56b05f07496c.jpg Скачать, смотреть онлайн Проект «Анна Николаевна» бесплантно в хорошем качестве Описание: Продолжение народной сай-фай комедии о приключениях идеальной во всех отношениях женщины-андроида на службе в российской полиции. ... 8.5 10 12
Торрент: Зарегистрирован [2021-10-28 02:57] · скачан: 151 раз
Статус: √ проверено
Размер: 13.36 GB
Как cкачать? Как скачать Проект «Анна Николаевна» через торрент | UTorrent

% Раздел Тема Автор DL S | L
Наши сериалы [ 18.8 GB ] Проект «Анна Николаевна» / Сезон: 2 / Серии: 1-8 из 8 | | 1080p, (Версия 18+ bober100 Скачать
1 | 0
Наши сериалы [ 34.29 GB ] Проект «Анна Николаевна» / Сезон: 2 / Серии: 1-8 из 8 | | 2160p, (Версия 18+ bober100 Скачать
1 | 0
Зарубежные сериалы [ 8.74 GB ] Проект «Анна Николаевна» / Сезон: 2 / Серии: 1-8 из 8 | | WEBRip-AVC, (Версия 18+ bober100 Скачать
1 | 1
Наши сериалы [ 6.91 GB ] Проект «Анна Николаевна» / Сезон: 2 / Серии: 1-8 из 8 | | WEBRip, (Версия 18+ bober100 Скачать
2 | 1
Наши сериалы [ 855 MB ] Проект «Анна Николаевна» / Сезон: 2 / Серии: 0- из 8 | | WEBRip-AVC, (Версия 18+ bober100 Скачать
1 | 0
Наши сериалы [ 976 MB ] Проект «Анна Николаевна» / Сезон: 2 / Серии: 0- из 8 | | WEBRip, (Версия 18+ bober100 Скачать
1 | 0
Наши сериалы [ 2.52 GB ] Проект «Анна Николаевна» / Сезон: 2 / Серии: 0- из 8 | | 1080p, (Версия 18+ bober100 Скачать
1 | 0



Последний раз редактировалось: bober100 (2021-10-28 02:57), всего редактировалось 5 раз(а)

28-11-2019 20:33  


Отключить вcю реклaмy на сайте, в т.ч. и в плеере онлайн просмотра!

23-09-2021 13:19 Проект «Анна Николаевна» Скачать торрент  

спасибо



    Дорогой пользователь! Огромная просьба, поблагодарите релизера, оцените раздачу и оставьте свои комментарий, если Вы скачали Проект «Анна Николаевна» через торрент бесплатно!!
    Комментировать посты могут только пользователи прошедшие не сложную регистрацию
    Показать сообщения:    


    Проект «Анна Николаевна» через торрент
    Скачать бесплатно Проект «Анна Николаевна»
    Проект «Анна Николаевна» скачать торрент
    Проект «Анна Николаевна» смотреть онлайн
    Cкачать фильм Проект «Анна Николаевна» бесплатно
    Проект «Анна Николаевна» скачать торрент в хорошем качестве
    Проект «Анна Николаевна» смотреть онлайн бесплатно в хорошем качестве
    Вы не можете начинать темы
    Вы не можете отвечать на сообщения
    Вы не можете редактировать свои сообщения
    Вы не можете удалять свои сообщения
    Вы не можете голосовать в опросах
    Вы не можете прикреплять файлы к сообщениям
    Вы можете скачивать файлы
    Проект «Анна Николаевна» / Сезон: 2 / Серии: 1-8 из 8 [2021, Комедия, фантастика, драма, WEBRip 720p, ] смотреть онлайн, скачать торрент picoco.icu