Доктор Стрэндж

Лицензия

Добыча

Дубляж

Дом дракона

1 сезон

Тор

Дубляж

В эфире

Дубляж

Там, где раки поют

MVO

Властелин колец

1 сезон

Ultimate

pack

Рекомендуем

30

Пиратка

ВАЖНО

ВАЖНО

Ghostwire

Пиратка

jed

RePack

nioh2

RePack

RDR2

RePack

NEED FOR SPEED™ PAYBACK

RePack

скачать торрент

Кинопоиск HD

Острые козырьки 6 сезон

6 сезон

FAR CRY 6

RePack

скачать торрент

Лицензия

скачать торрент

MVO

1

1 сезон

скачать торрент

1 сезон

скачать торрент

Лицензия

  

Проект «Анна Николаевна» / Сезон: 2 / Серии: 1-8 из 8 (Максим Пежемский, Александр Карпиловский) [2021, Комедия, фантастика, драма, WEBRip 2160p, (Версия 18+)]

Проект «Анна Николаевна» через торрент pb.wtf

Размер: 34.29 GB | Добавлен: 1 год назад | Торрент скачан:37 раз
Смотреть онлайн | Скачать   

16-09-2021 05:27 Проект «Анна Николаевна» Скачать торрент  

Проект «Анна Николаевна»
Год выпуска: 2021
Страна: Россия
Выпущено: КиноПоиск HD, Продюсерская компания «Среда»
Жанр: Комедия, фантастика, драма
Продолжительность: ~ 00:39:00
Субтитры: Русские
Версия 18+.

Режиссер: Максим Пежемский, Александр Карпиловский

rating

В ролях: Зоя Бербер, Антон Филипенко, Сергей Гармаш, Кузьма Сапрыкин, Фёдор Лавров, Маруся Климова, Антон Васильев, Никита Тарасов, Анна Котова, Ирина Розанова

Описание: Продолжение народной сай-фай комедии о приключениях идеальной во всех отношениях женщины-андроида на службе в российской полиции. В новом сезоне команду подполковника Галузо за хорошую работу переведут в Москву, а в качестве гида по большому городу к ним прикрепят ту самую Анну Николаевну Королькевич, с которой проектировали полицейского-андроида. Следователи Мокрый и Ляпин будут бороться с преступностью и московским ханжеством, а выживший после драматичных событий в финале первого сезона майор Пожарский обнаружит себя в любовном четырехугольнике.

Качество: WEBRip 2160p
Формат: MKV

Видео: HEVC, 3840x1608, ~ 11.6 Мбит/с, 0.075 bit/pixel, 25 Кадр/с
Аудио #01: Русский, E-AC3, 48,0 КГц, 6 ch, 448 kbps | C цензурой
Аудио #02: Русский, E-AC3, 48,0 КГц, 6 ch, 448 kbps | без цензуры, 18+
скриншот  скриншот  скриншот  скриншот  скриншот  

Общее
Уникальный идентификатор : 3144970348859696001257825908052615853 (0x25DB302802EDF5AD9D0A48224C262AD)
Полное имя : F:Proekt.Anna.Nikolaevna.S02.2021.WEB-DL.2160p1.Proekt.Anna.Nikolaevna.S02.2021.WEB-DL.2160p.mkv
Формат : Matroska
Версия формата : Version 4
Размер файла : 3,40 Гбайт
Продолжительность : 38 м. 58 с.
Общий поток : 12,5 Мбит/сек
Название фильма : 01.Proekt.Anna.Nikolaevna.S02.2021.WEB-DL.2160p
Дата кодирования : UTC 2021-09-16 01:47:25
Программа кодирования : mkvmerge v60.0.0 ('Are We Copies?') 64-bit
Библиотека кодирования : libebml v1.4.2 + libmatroska v1.6.4
Attachments : poster.jpg

Видео
Идентификатор : 1
Формат : HEVC
Формат/Информация : High Efficiency Video Coding
Профиль формата : [email protected]@Main
Идентификатор кодека : V_MPEGH/ISO/HEVC
Продолжительность : 38 м. 58 с.
Битрейт : 11,6 Мбит/сек
Ширина : 3 840 пикселей
Высота : 1 608 пикселей
Соотношение сторон : 2,40:1
Режим частоты кадров : Постоянный
Частота кадров : 25,000 кадров/сек
Цветовое пространство : YUV
Субдискретизация насыщенности : 4:2:0
Битовая глубина : 8 бит
Бит/(Пиксели*Кадры) : 0.075
Размер потока : 3,15 Гбайт (93%)
Библиотека кодирования : x265 0.0:[Linux][GCC 7.5.0][64 bit] 8bit+10bit+12bit
Настройки программы : cpuid=1111039 / frame-threads=5 / wpp / no-pmode / no-pme / no-psnr / no-ssim / log-level=2 / input-csp=1 / input-res=3840x1608 / interlace=0 / total-frames=0 / level-idc=0 / high-tier=1 / uhd-bd=0 / ref=2 / no-allow-non-conformance / no-repeat-headers / annexb / no-aud / no-hrd / info / hash=0 / no-temporal-layers / no-open-gop / min-keyint=100 / keyint=100 / gop-lookahead=0 / bframes=4 / b-adapt=2 / b-pyramid / bframe-bias=0 / rc-lookahead=25 / lookahead-slices=4 / scenecut=0 / radl=0 / no-splice / no-intra-refresh / ctu=64 / min-cu-size=8 / rect / no-amp / max-tu-size=32 / tu-inter-depth=1 / tu-intra-depth=1 / limit-tu=0 / rdoq-level=2 / dynamic-rd=0.00 / no-ssim-rd / signhide / no-tskip / nr-intra=0 / nr-inter=0 / no-constrained-intra / strong-intra-smoothing / max-merge=3 / limit-refs=3 / limit-modes / me=3 / subme=3 / merange=57 / temporal-mvp / weightp / no-weightb / no-analyze-src-pics / deblock=0:0 / sao / no-sao-non-deblock / rd=4 / no-early-skip / rskip / no-fast-intra / no-tskip-fast / no-cu-lossless / no-b-intra / no-splitrd-skip / rdpenalty=0 / psy-rd=2.00 / psy-rdoq=1.00 / no-rd-refine / no-lossless / cbqpoffs=0 / crqpoffs=0 / rc=abr / bitrate=11600 / qcomp=0.60 / qpstep=4 / stats-write=0 / stats-read=2 / cplxblur=20.0 / qblur=0.5 / vbv-maxrate=17400 / vbv-bufsize=23200 / vbv-init=0.9 / ipratio=1.40 / pbratio=1.30 / aq-mode=2 / aq-strength=1.00 / cutree / zone-count=0 / no-strict-cbr / qg-size=32 / no-rc-grain / qpmax=69 / qpmin=0 / no-const-vbv / sar=1 / overscan=0 / videoformat=5 / range=0 / colorprim=2 / transfer=2 / colormatrix=2 / chromaloc=0 / display-window=0cll=0,0 / min-luma=0 / max-luma=255 / log2-max-poc-lsb=8 / vui-timing-info / vui-hrd-info / slices=1 / no-opt-qp-pps / no-opt-ref-list-length-pps / no-multi-pass-opt-rps / scenecut-bias=0.05 / no-opt-cu-delta-qp / no-aq-motion / no-hdr / no-hdr-opt / no-dhdr10-opt / no-idr-recovery-sei / analysis-reuse-level=5 / scale-factor=0 / refine-intra=0 / refine-inter=0 / refine-mv=0 / refine-ctu-distortion=0 / no-limit-sao / ctu-info=0 / no-lowpass-dct / refine-analysis-type=0 / copy-pic=1 / max-ausize-factor=1.0 / no-dynamic-refine / no-single-sei / no-hevc-aq / no-svt / no-field / qp-adaptation-range=1.00
Язык : Russian
Default : Да
Forced : Нет
Цветовой диапазон : Limited

Аудио #1
Идентификатор : 2
Формат : E-AC-3
Формат/Информация : Enhanced AC-3
Коммерческое название : Dolby Digital Plus
Идентификатор кодека : A_EAC3
Продолжительность : 38 м. 58 с.
Вид битрейта : Постоянный
Битрейт : 448 Кбит/сек
Каналы : 6 каналов
Channel layout : L R C LFE Ls Rs
Частота : 48,0 КГц
Частота кадров : 31,250 кадров/сек (1536 SPF)
Метод сжатия : С потерями
Размер потока : 125 Мбайт (4%)
Заголовок : Censor
Язык : Russian
Service kind : Complete Main
Default : Да
Forced : Нет

Аудио #2
Идентификатор : 3
Формат : E-AC-3
Формат/Информация : Enhanced AC-3
Коммерческое название : Dolby Digital Plus
Идентификатор кодека : A_EAC3
Продолжительность : 38 м. 58 с.
Вид битрейта : Постоянный
Битрейт : 448 Кбит/сек
Каналы : 6 каналов
Channel layout : L R C LFE Ls Rs
Частота : 48,0 КГц
Частота кадров : 31,250 кадров/сек (1536 SPF)
Метод сжатия : С потерями
Размер потока : 125 Мбайт (4%)
Заголовок : 18+
Язык : Russian
Service kind : Complete Main
Default : Нет
Forced : Нет

Текст
Идентификатор : 4
Формат : UTF-8
Идентификатор кодека : S_TEXT/UTF8
Идентификатор кодека/Информация : UTF-8 Plain Text
Продолжительность : 38 м. 0 с.
Битрейт : 121 бит/сек
Count of elements : 582
Размер потока : 34,0 Кбайт (0%)
Заголовок : RU
Язык : Russian
Default : Нет
Forced : Нет

Раздача ведётся путём добавления новых серий, при каждом добавлении создаётся новый торрент. Чтобы начать докачку новой серии, пользователям необходимо сделать следующее:

- Остановить скачивание.
- Удалить старый торрент у себя из клиента (старые серии удалять не надо).
- Скачать новый торрент и запустить его у себя в клиенте вместо старого, при этом указать клиенту путь в старую папку куда и должно происходить скачивание новых серий.

Ваш клиент при этом должен произвести хеширование (проверку) старой папки (если не производит сам - помогите ему сделать это), и будет докачивать только те серии которых у вас ещё нет. Старые серии при этом не удаляются, а продолжают раздаваться!
Если вы уже удалили старые серии, то предотвратить повторную закачку старых серий можно, отжав галочку в соответствующих местах при запуске нового торрента. По возможности, желательно не удалять старые серии как можно дольше, чтобы релизер не столько продолжал раздавать старые серии, а смог сконцентрироваться на новых.



Скачать Проект «Анна Николаевна» через торрент https://c.radikal.ru/c28/2109/e3/56b05f07496c.jpg Скачать, смотреть онлайн Проект «Анна Николаевна» бесплантно в хорошем качестве Описание: Продолжение народной сай-фай комедии о приключениях идеальной во всех отношениях женщины-андроида на службе в российской полиции. ... 8 10 9
Торрент: Зарегистрирован [2021-10-28 15:47] · скачан: 37 раз
Статус: √ проверено
Размер: 34.29 GB
Как cкачать? Как скачать Проект «Анна Николаевна» через торрент | UTorrent

% Раздел Тема Автор DL S | L
Наши сериалы [ 18.8 GB ] Проект «Анна Николаевна» / Сезон: 2 / Серии: 1-8 из 8 | | 1080p, (Версия 18+ bober100 Скачать
1 | 0
Наши сериалы [ 13.36 GB ] Проект «Анна Николаевна» / Сезон: 2 / Серии: 1-8 из 8 | | 720p, (Версия 18+ bober100 Скачать
2 | 0
Зарубежные сериалы [ 8.74 GB ] Проект «Анна Николаевна» / Сезон: 2 / Серии: 1-8 из 8 | | WEBRip-AVC, (Версия 18+ bober100 Скачать
1 | 1
Наши сериалы [ 6.91 GB ] Проект «Анна Николаевна» / Сезон: 2 / Серии: 1-8 из 8 | | WEBRip, (Версия 18+ bober100 Скачать
3 | 0
Наши сериалы [ 855 MB ] Проект «Анна Николаевна» / Сезон: 2 / Серии: 0- из 8 | | WEBRip-AVC, (Версия 18+ bober100 Скачать
1 | 0
Наши сериалы [ 976 MB ] Проект «Анна Николаевна» / Сезон: 2 / Серии: 0- из 8 | | WEBRip, (Версия 18+ bober100 Скачать
1 | 0
Наши сериалы [ 2.52 GB ] Проект «Анна Николаевна» / Сезон: 2 / Серии: 0- из 8 | | 1080p, (Версия 18+ bober100 Скачать
1 | 0

28-11-2019 20:33  


Отключить вcю реклaмy на сайте, в т.ч. и в плеере онлайн просмотра!

    Дорогой пользователь! Огромная просьба, поблагодарите релизера, оцените раздачу и оставьте свои комментарий, если Вы скачали Проект «Анна Николаевна» через торрент бесплатно!!
    Комментировать посты могут только пользователи прошедшие не сложную регистрацию
    Показать сообщения:    


    Проект «Анна Николаевна» через торрент
    Скачать бесплатно Проект «Анна Николаевна»
    Проект «Анна Николаевна» скачать торрент
    Проект «Анна Николаевна» смотреть онлайн
    Cкачать фильм Проект «Анна Николаевна» бесплатно
    Проект «Анна Николаевна» скачать торрент в хорошем качестве
    Проект «Анна Николаевна» смотреть онлайн бесплатно в хорошем качестве
    Вы не можете начинать темы
    Вы не можете отвечать на сообщения
    Вы не можете редактировать свои сообщения
    Вы не можете удалять свои сообщения
    Вы не можете голосовать в опросах
    Вы не можете прикреплять файлы к сообщениям
    Вы можете скачивать файлы
    Проект «Анна Николаевна» / Сезон: 2 / Серии: 1-8 из 8 [2021, Комедия, фантастика, драма, WEBRip 2160p, ] смотреть онлайн, скачать торрент picoco.icu