Достать ножи: Стеклянная луковица

MVO

Добыча

Дубляж

Уэнсдэй

1 сезон

Тор

Дубляж

13 клиническая

1 сезон

Жестокая ночь

MVO

Одни из нас

1 сезон

Deluxe

pack

Рекомендуем

30

Пиратка

ВАЖНО

ВАЖНО

Ghostwire

Пиратка

jed

RePack

nioh2

RePack

RDR2

RePack

NEED FOR SPEED™ PAYBACK

RePack

скачать торрент

Кинопоиск HD

Острые козырьки 6 сезон

6 сезон

FAR CRY 6

RePack

скачать торрент

Лицензия

скачать торрент

MVO

1

1 сезон

скачать торрент

1 сезон

скачать торрент

Лицензия

  

Воспоминания / Reminiscence (Лиза Джой) [2021, Фантастика, триллер, мелодрама, детектив, WEB-DLRip-AVC] Дубляж [iTunes]

Воспоминания через торрент pb.wtf

Раздают: 3 [ 0 KB/s ]
Размер: 1.59 GB | Добавлен: 1 год 4 мес. назад | Торрент скачан:393 раза
Смотреть онлайн | Скачать | Поддержите нас   

18-09-2021 02:43 Воспоминания Скачать торрент  

Воспоминания | Reminiscence
Год выпуска: 2021
Страна: США
Выпущено: FilmNation EntertainmentKilter FilmsMichael De Luca Productions
Жанр: Фантастика, триллер, мелодрама, детектив
Продолжительность: 01:55:52
Перевод: Дублированный | iTunes
Субтитры: Русские (Forced, full), английские

Режиссер: Лиза Джой

rating

В ролях: Ребекка Фергюсон, Хью Джекман, Тандиве Ньютон, Натали Мартинес, Анджела Сарафян, Клифф Кёртис, Бретт Каллен, Джованни Крус, Дэниэл Ву, Тери Уайбл

Описание: Недалёкое будущее, Майами почти полностью ушёл под воду из-за глобального потепления. Частный детектив Ник Баннистер с помощью специальной технологии выискивает в человеческой памяти нужные моменты, чтобы заказчик мог заново пережить прошлое и вспомнить что-то важное. Однажды на пороге его офиса появляется клиентка с простой просьбой: она забыла, где оставила ключи. Обычная сессия превращается в полноценный роман, пока в один день женщина не исчезает без следа.

Качество: WEB-DLRip-AVC
Формат: MKV

Видео: MPEG-4 AVC, 1024x428 at 23.976 fps, [email protected], ~1579 kbps
Аудио: 48 kHz, AC3 Dolby Digital, 3/2 (L,C,R,l,r) + LFE ch, ~384 kbps
скриншот  скриншот  скриншот  скриншот  скриншот  

x264 [info]: frame I:1421 Avg QP:15.80 size: 48821
x264 [info]: frame P:34276 Avg QP:17.34 size: 17579
x264 [info]: frame B:131094 Avg QP:19.47 size: 5345

General
Unique ID : 101150904863992857240920077840790518401 (0x4C18F4A5FFBAA35D6BDA6C3F0D66FA81)
Complete name : B:Reminiscence.(2021).IT.WEB-DLRip-AVC.mkv
Format : Matroska
Format version : Version 4
File size : 1.59 GiB
Duration : 1 h 56 min
Overall bit rate : 1 958 kb/s
Encoded date : UTC 2021-09-17 20:23:07
Writing application : mkvmerge v61.0.0 ('So') 64-bit
Writing library : libebml v1.4.2 + libmatroska v1.6.4
Cover : Yes
Attachments : Cover.jpg / Cover 2.jpg

Video
ID : 1
Format : AVC
Format/Info : Advanced Video Codec
Format profile : [email protected]
Format settings : CABAC / 12 Ref Frames
Format settings, CABAC : Yes
Format settings, Reference : 12 frames
Codec ID : V_MPEG4/ISO/AVC
Duration : 1 h 55 min
Bit rate : 1 579 kb/s
Width : 1 024 pixels
Height : 428 pixels
Display aspect ratio : 2.40:1
Frame rate mode : Constant
Frame rate : 23.976 (24000/1001) FPS
Color space : YUV
Chroma subsampling : 4:2:0
Bit depth : 8 bits
Scan type : Progressive
Bits/(Pixel*Frame) : 0.150
Stream size : 1.28 GiB (80%)
Title : -=DoMiNo=-
Writing library : x264 core 164 r3065+55M 280faca t_mod_New [(8 & 10)[email protected] X86_64]
Encoding settings : cabac=1 / ref=12 / deblock=1:-3:-2 / analyse=0x3:0x133 / me=umh / subme=10 / psy=1 / fade_compensate=0.00 / psy_rd=1.00:0.20 / mixed_ref=1 / me_range=32 / chroma_me=1 / trellis=2 / 8x8dct=1 / cqm=0 / deadzone=21,11 / fast_pskip=0 / chroma_qp_offset=-3 / threads=24 / lookahead_threads=3 / sliced_threads=0 / nr=0 / decimate=1 / interlaced=0 / bluray_compat=0 / constrained_intra=0 / fgo=0 / bframes=14 / b_pyramid=2 / b_adapt=2 / b_bias=0 / direct=1 / weightb=1 / open_gop=0 / weightp=2 / keyint=240 / keyint_min=23 / scenecut=40 / intra_refresh=0 / rc_lookahead=60 / rc=crf / mbtree=0 / crf=19.5000 / qcomp=0.60 / qpmin=0:0:0 / qpmax=69:69:69 / qpstep=4 / vbv_maxrate=50000 / vbv_bufsize=62500 / crf_max=0.0 / nal_hrd=none / filler=0 / ip_ratio=1.30 / pb_ratio=1.20 / aq=3:1.00 / aq-sensitivity=10.00 / aq-factor=1.00:1.00:1.00 / aq2=0 / aq3=0
Language : English
Default : Yes
Forced : No
Color range : Limited
Color primaries : BT.709
Transfer characteristics : BT.709
Matrix coefficients : BT.709

Audio
ID : 2
Format : AC-3
Format/Info : Audio Coding 3
Commercial name : Dolby Digital
Codec ID : A_AC3
Duration : 1 h 56 min
Bit rate mode : Constant
Bit rate : 384 kb/s
Channel(s) : 6 channels
Channel layout : L R C LFE Ls Rs
Sampling rate : 48.0 kHz
Frame rate : 31.250 FPS (1536 SPF)
Compression mode : Lossy
Stream size : 320 MiB (20%)
Title : Дубляж
Language : Russian
Service kind : Complete Main
Default : Yes
Forced : No

Text #1
ID : 3
Format : UTF-8
Codec ID : S_TEXT/UTF8
Codec ID/Info : UTF-8 Plain Text
Duration : 1 h 50 min
Bit rate : 2 b/s
Count of elements : 45
Stream size : 1.68 KiB (0%)
Title : Forced
Language : Russian
Default : Yes
Forced : No

Text #2
ID : 4
Format : UTF-8
Codec ID : S_TEXT/UTF8
Codec ID/Info : UTF-8 Plain Text
Duration : 1 h 53 min
Bit rate : 92 b/s
Count of elements : 1493
Stream size : 77.1 KiB (0%)
Title : Full
Language : Russian
Default : No
Forced : No

Text #3
ID : 5
Format : UTF-8
Codec ID : S_TEXT/UTF8
Codec ID/Info : UTF-8 Plain Text
Duration : 1 h 50 min
Bit rate : 62 b/s
Count of elements : 1623
Stream size : 51.1 KiB (0%)
Language : English
Default : No
Forced : No




Скачать Воспоминания через торрент https://st-kp-yandex-net.translate.goog/images/film_iphone/iphone360_811078.jpg Скачать, смотреть онлайн Воспоминания бесплантно в хорошем качестве Описание: Недалёкое будущее, Майами почти полностью ушёл под воду из-за глобального потепления. Частный детектив Ник Баннистер с помощью ... 9.8 10 8
Торрент: Зарегистрирован [2021-09-18 02:43] · скачан: 393 раз
Статус: √ проверено
Размер: 1.59 GB
Как cкачать? Как скачать Воспоминания через торрент | UTorrent

% Раздел Тема Автор DL S | L
Фильмы 2021 [DVDrip, WEB-DLRip, HDrip] (DUB, MVO) [ 1.47 GB ] Воспоминания / Reminiscence | Пифагор | BDRip bober100 Скачать
1 | 0
Фильмы 2021 [DVDrip, WEB-DLRip, HDrip] (DUB, MVO) [ 2.18 GB ] Воспоминания / Reminiscence | Лицензия | BDRip Twi7ter Скачать
8 | 0
Фильмы 2021 [DVDrip, WEB-DLRip, HDrip] (DUB, MVO) [ 1.46 GB ] Воспоминания / Reminiscence | Лицензия | BDRip Twi7ter Скачать
6 | 1
Фильмы 2021 [DVDrip, WEB-DLRip, HDrip] (DUB, MVO) [ 2.19 GB ] Воспоминания / Reminiscence | Пифагор | BDRip bober100 Скачать
2 | 0
Фильмы 2021 [DVDrip, WEB-DLRip, HDrip] (DUB, MVO) [ 2.23 GB ] Воспоминания / Reminiscence | Пифагор | HDRip-AVC Lithuania Скачать
1 | 0
Ultra HD (UHD: 2K, 4K, 8K) [ 20.14 GB ] Воспоминания / Reminiscence | Пифагор | 2160p bober100 Скачать
2 | 0
Ultra HD (UHD: 2K, 4K, 8K) [ 48.48 GB ] Воспоминания / Reminiscence | Пифагор | 2160p, (Dolby Vision bober100 Скачать
1 | 0

28-11-2019 20:33  


Отключить вcю реклaмy на сайте, в т.ч. и в плеере онлайн просмотра!

    Дорогой пользователь! Огромная просьба, поблагодарите релизера, оцените раздачу и оставьте свои комментарий, если Вы скачали Воспоминания через торрент бесплатно!!
    Комментировать посты могут только пользователи прошедшие не сложную регистрацию
    Показать сообщения:    


    Воспоминания через торрент
    Скачать бесплатно Воспоминания
    Воспоминания скачать торрент
    Воспоминания смотреть онлайн
    Cкачать фильм Воспоминания бесплатно
    Воспоминания скачать торрент в хорошем качестве
    Воспоминания смотреть онлайн бесплатно в хорошем качестве
    Вы не можете начинать темы
    Вы не можете отвечать на сообщения
    Вы не можете редактировать свои сообщения
    Вы не можете удалять свои сообщения
    Вы не можете голосовать в опросах
    Вы не можете прикреплять файлы к сообщениям
    Вы можете скачивать файлы
    Воспоминания / Reminiscence [2021, Фантастика, триллер, мелодрама, детектив, WEB-DLRip-AVC] Дубляж [iTunes] смотреть онлайн, скачать торрент picoco.icu