Присоединяйтесь к нам в Telegram!, здесь всегда актуальный адрес сайта, оперативная поддержка и многое другое!!

>

5.9

iTunes

7.4

iTunes

9.4

1 сезон

1

7.4

2 сезон

7.2

iTunes

7.3

1 сезон

13

6.1

iTunes

8.3

GOG

30

ULTIMATE

pack

9.9

Лицензия

ВАЖНО

ИГРА 18+

pack

7.3

RePack

MK11

7.7

RePack

jed

7.8

RePack

fifa19

8.5

RePack

RDR2

RePack

NEED FOR SPEED™ PAYBACK

5 сезон

9 сезон

Бесстыжие 9 сезон

Все сериалы

все сериалы на PB.wtf

RePack

FAR CRY 5

Anonymous, добрый вечер, мы катастрофически не успеваем собрать деньги на оплату серверов, помогите нам пожалуйста 5,10,15р., для нас важна любая помощь . В качестве благодарности мы отключим Вам всю рекламу на сайте (укажите свой ник в строку Ваше имя)!

×
  
Magnet ссылка

Злое / Malignant (Джеймс Ван) [2021, Ужасы, WEB-DLRip-AVC] MVO [Jaskier] pb.wtf

Злое через торрент pb.wtf

Раздают: 5 [ 16 KB/s ]
Размер: 1.4 GB | Добавлен: 2 мес. 11 д. назад | Торрент скачан:131 раз
Смотреть онлайн Злое | Скачать    Ребята, помогите собрать деньги на оплату серверов!!!

19-09-2021 07:09 Злое Скачать торрент  

Злое | Malignant
Год выпуска: 2021
Страна: США, Китай, Румыния
Выпущено: Atomic MonsterBoom EntertainmentBoom! Studios
Жанр: Ужасы
Продолжительность: 01:51:33
Перевод: Многоголосый профессиональный | Jaskier
Субтитры: Русские (Full), английские (SDH)

Режиссер: Джеймс Ван

rating

В ролях: Аннабелль Уоллис, Мэдди Хассон, Джордж Янг, Жаклин МакКензи, Ингрид Бису, Миколь Уайт, Пола Маршалл, Джейк Эйбел, Патрик Кокс, Рэйчел Уинфри

Описание: Жизнь Мэдисон превращается в настоящий кошмар, когда в своих снах она становится свидетельницей зверских убийств. Но что, если ночные видения — на самом деле жестокая реальность? Есть ли у Мэдисон шанс их предотвратить?

Качество: WEB-DLRip-AVC
Формат: MKV

Видео: 1024x428 at 23.976 fps, x264@L4.1, ~1415 kbps
Аудио: AC3, 48 kHz, 6 ch, ~384.00 kbps avg | русский | Jaskier
скриншот  скриншот  скриншот  скриншот  скриншот  

x264 [info]: frame I:1153 Avg QP:15.77 size: 55889
x264 [info]: frame P:36179 Avg QP:18.74 size: 15742
x264 [info]: frame B:123156 Avg QP:20.82 size: 4463
x264 [info]: consecutive B-frames: 2.3% 3.4% 6.9% 32.3% 13.0% 26.8% 4.1% 6.4% 1.0% 1.4% 0.6% 1.1% 0.2% 0.3% 0.0%

General
Unique ID : 224442994383390847412074446843017363548 (0xA8DA25FB8448FDBA34F6A9C23703005C)
Complete name : I:Злое.(2021).WEB-DLRip-AVC.[-=DoMiNo=-].mkv
Format : Matroska
Format version : Version 4
File size : 1.45 GiB
Duration : 1 h 51 min
Overall bit rate : 1 865 kb/s
Movie name : Злое.(2021).WEB-DLRip-AVC.[-=DoMiNo=-]
Encoded date : UTC 2021-09-11 14:06:34
Writing application : mkvmerge v61.0.0 ('So') 64-bit
Writing library : libebml v1.4.2 + libmatroska v1.6.4
Cover : Yes
Attachments : Cover.jpg / Cover 2.jpg

Video
ID : 1
Format : AVC
Format/Info : Advanced Video Codec
Format profile : High@L4.1
Format settings : CABAC / 12 Ref Frames
Format settings, CABAC : Yes
Format settings, Reference : 12 frames
Codec ID : V_MPEG4/ISO/AVC
Duration : 1 h 51 min
Bit rate : 1 415 kb/s
Width : 1 024 pixels
Height : 428 pixels
Display aspect ratio : 2.40:1
Frame rate mode : Constant
Frame rate : 23.976 (24000/1001) FPS
Color space : YUV
Chroma subsampling : 4:2:0
Bit depth : 8 bits
Scan type : Progressive
Bits/(Pixel*Frame) : 0.135
Stream size : 1.10 GiB (76%)
Title : -=DoMiNo=-
Writing library : x264 core 164 r3065+55M 280faca t_mod_New [(8 & 10)-bit@all X86_64]
Encoding settings : cabac=1 / ref=12 / deblock=1:-3:-2 / analyse=0x3:0x133 / me=umh / subme=10 / psy=1 / fade_compensate=0.00 / psy_rd=1.00:0.20 / mixed_ref=1 / me_range=32 / chroma_me=1 / trellis=2 / 8x8dct=1 / cqm=0 / deadzone=21,11 / fast_pskip=0 / chroma_qp_offset=-3 / threads=24 / lookahead_threads=3 / sliced_threads=0 / nr=0 / decimate=0 / interlaced=0 / bluray_compat=0 / constrained_intra=0 / fgo=0 / bframes=14 / b_pyramid=2 / b_adapt=2 / b_bias=0 / direct=3 / weightb=1 / open_gop=0 / weightp=2 / keyint=240 / keyint_min=23 / scenecut=40 / intra_refresh=0 / rc_lookahead=60 / rc=2pass / mbtree=0 / bitrate=1415 / ratetol=1.0 / qcomp=0.70 / qpmin=0:0:0 / qpmax=69:69:69 / qpstep=4 / cplxblur=20.0 / qblur=0.5 / vbv_maxrate=50000 / vbv_bufsize=62500 / nal_hrd=none / filler=0 / ip_ratio=1.40 / pb_ratio=1.30 / aq=2:1.00 / aq-sensitivity=10.00 / aq-factor=1.00:1.00:1.00 / aq2=0 / aq3=0
Language : English
Default : Yes
Forced : No

Audio
ID : 2
Format : AC-3
Format/Info : Audio Coding 3
Commercial name : Dolby Digital
Codec ID : A_AC3
Duration : 1 h 51 min
Bit rate mode : Constant
Bit rate : 448 kb/s
Channel(s) : 6 channels
Channel layout : L R C LFE Ls Rs
Sampling rate : 48.0 kHz
Frame rate : 31.250 FPS (1536 SPF)
Compression mode : Lossy
Stream size : 357 MiB (24%)
Title : DVO_[Pazl Voice]
Language : Russian
Service kind : Complete Main
Default : Yes
Forced : No

Text #1
ID : 3
Format : UTF-8
Codec ID : S_TEXT/UTF8
Codec ID/Info : UTF-8 Plain Text
Duration : 1 h 45 min
Bit rate : 54 b/s
Count of elements : 943
Stream size : 42.0 KiB (0%)
Language : Russian
Default : No
Forced : No

Text #2
ID : 4
Format : UTF-8
Codec ID : S_TEXT/UTF8
Codec ID/Info : UTF-8 Plain Text
Duration : 1 h 45 min
Bit rate : 33 b/s
Count of elements : 963
Stream size : 25.9 KiB (0%)
Language : English
Default : No
Forced : No

Text #3
ID : 5
Format : UTF-8
Codec ID : S_TEXT/UTF8
Codec ID/Info : UTF-8 Plain Text
Duration : 1 h 47 min
Bit rate : 45 b/s
Count of elements : 1397
Stream size : 35.8 KiB (0%)
Title : SDH
Language : English
Default : No
Forced : No

pb.wtf



Скачать Злое через торрент https://a.radikal.ru/a22/2109/59/df87a7762803.jpg Скачать, смотреть онлайн Злое бесплантно в хорошем качестве Описание: Жизнь Мэдисон превращается в настоящий кошмар, когда в своих снах она становится свидетельницей зверских убийств. Но что, если ... 8.7 10 7
Торрент: Зарегистрирован [2021-09-19 07:09] · скачан: 131 раз
Статус: √ проверено
Размер: 1.4 GB
Как cкачать? Как скачать Злое через торрент | UTorrent

% Раздел Тема Автор DL S | L
Фильмы [HD 720p, 1080p] (Хороший звук DUB, MVO) [ 9.55 GB ] Злое / Malignant [2021 BDRip 1080p] DUB [Пифагор] bober100 Скачать
8 | 0
Фильмы (Blu-ray, BD-Remux, HDDVD) [ 29.27 GB ] Злое / Malignant [2021 BD Remux 1080p] DUB [Пифагор] bober100 Скачать
3 | 0
Фильмы [HD 720p, 1080p] (Хороший звук DUB, MVO) [ 4.44 GB ] Злое / Malignant [2021 BDRip 720p] DUB [Пифагор] bober100 Скачать
6 | 0
Фильмы 2021 [DVDrip, WEB-DLRip, HDrip] (DUB, MVO) [ 2.18 GB ] Злое / Malignant [2021 BDRip] - [ / Пифагор] Twi7ter Скачать
20 | 3
Фильмы 2021 [DVDrip, WEB-DLRip, HDrip] (DUB, MVO) [ 1.46 GB ] Злое / Malignant [2021 BDRip] - [ / Пифагор] Twi7ter Скачать
22 | 7
Фильмы 2021 [DVDrip, WEB-DLRip, HDrip] (DUB, MVO) [ 2.18 GB ] Злое / Malignant [2021 BDRip] DUB [Пифагор] bober100 Скачать
3 | 0
Фильмы 2021 [DVDrip, WEB-DLRip, HDrip] (DUB, MVO) [ 1.46 GB ] Злое / Malignant [2021 BDRip] DUB [Пифагор] bober100 Скачать
4 | 0

28-11-2019 20:33  

Отключить всю рекламу на сайте

    Дорогой пользователь! Огромная просьба, поблагодарите релизера, оцените раздачу и оставьте свои комментарий, если Вы скачали Злое через торрент бесплатно!
    Комментировать посты могут только пользователи прошедшие не сложную регистрацию
    Показать сообщения:    

    Злое через торрент
    Скачать бесплатно Злое
    Злое скачать торрент
    Злое смотреть онлайн
    Cкачать фильм Злое бесплатно
    Злое скачать торрент в хорошем качестве
    Злое смотреть онлайн бесплатно в хорошем качестве


    Вы не можете начинать темы
    Вы не можете отвечать на сообщения
    Вы не можете редактировать свои сообщения
    Вы не можете удалять свои сообщения
    Вы не можете голосовать в опросах
    Вы не можете прикреплять файлы к сообщениям
    Вы можете скачивать файлы