Присоединяйтесь к нам в Telegram!, здесь всегда актуальный адрес сайта, оперативная поддержка и многое другое!!

>

5.9

iTunes

7.4

iTunes

9.4

1 сезон

1

7.4

2 сезон

7.2

iTunes

7.3

1 сезон

13

6.1

iTunes

8.3

GOG

30

ULTIMATE

pack

9.9

Лицензия

ВАЖНО

ИГРА 18+

pack

7.3

RePack

MK11

7.7

RePack

jed

7.8

RePack

fifa19

8.5

RePack

RDR2

RePack

NEED FOR SPEED™ PAYBACK

5 сезон

9 сезон

Бесстыжие 9 сезон

Все сериалы

все сериалы на PB.wtf

RePack

FAR CRY 5

Anonymous, добрый вечер, мы катастрофически не успеваем собрать деньги на оплату серверов, помогите нам пожалуйста 5,10,15р., для нас важна любая помощь . В качестве благодарности мы отключим Вам всю рекламу на сайте (укажите свой ник в строку Ваше имя)!

×
  
Magnet ссылка

Мужские слезы / Cry Macho (Клинт Иствуд) [2021, Триллер, драма, вестерн, WEB-DLRip-AVC] MVO [Jaskier] pb.wtf

Мужские слезы через торрент pb.wtf

Раздают: 3 [ 0 KB/s ]
Размер: 1.86 GB | Добавлен: 2 мес. 11 д. назад | Торрент скачан:108 раз
Смотреть онлайн Мужские слезы | Скачать    Ребята, помогите собрать деньги на оплату серверов!!!

19-09-2021 09:43 Мужские слезы Скачать торрент  

Мужские слезы | Cry Macho
Год выпуска: 2021
Страна: США
Выпущено: Daniel Grodnik Productions, Malpaso Productions, QED International
Жанр: Триллер, драма, вестерн
Продолжительность: 01:43:52
Перевод: Профессиональный (многоголосый) | Jaskier
Субтитры: английские + (вшитые на мексиканский диaлог.)

Режиссер: Клинт Иствуд

rating

В ролях: Клинт Иствуд, Дуайт Йоакам, Фернанда Уррехола, Брити Рэтледж, Наталия Травен, Эмбер Линн Эшли, Эдуардо Минетт, Ана Рей, Горасио Гарсиа Рохас, Александра Радди

Описание: После того как жену с ребенком конезаводчика и победителя Кентуккийского дерби по имени Майк убили, он впал в депрессию, заливая горе алкоголем. Однажды инвестор предлагает Майку выбор: либо уволиться, либо вернуть ему сына, который живет с бывшей женой в Мексике.

Качество: WEB-DLRip-AVC
Формат: MKV

Видео: MPEG-4 AVC, 2112 Кбит/сек, 1024x436
Аудио: AC3, 6 ch, 448 Кбит/с | RUS |
скриншот  скриншот  скриншот  скриншот  скриншот  

Общее
Уникальный идентификатор : 217297846409682459953113833494852810380 (0xA37A0AFD241EDCDA2E98A12D3E62368C)
Полное имя : E:TorrentsCry.Macho.2021.WEB-DLRip-AVC_JNS82.mkv
Формат : Matroska
Версия формата : Version 4
Размер файла : 1,86 Гбайт
Продолжительность : 1 ч. 43 м.
Общий поток : 2 562 Кбит/сек
Название фильма : Cry.Macho.2021.WEB-DLRip-AVC_JNS82
Дата кодирования : UTC 2021-09-19 08:46:58
Программа кодирования : mkvmerge v59.0.0 ('Shining Star') 64-bit
Библиотека кодирования : libebml v1.4.2 + libmatroska v1.6.4

Видео
Идентификатор : 1
Формат : AVC
Формат/Информация : Advanced Video Codec
Профиль формата : High@L4.1
Настройки формата : CABAC / 12 Ref Frames
Параметр CABAC формата : Да
Параметр RefFrames формата : 12 кадров
Идентификатор кодека : V_MPEG4/ISO/AVC
Продолжительность : 1 ч. 43 м.
Битрейт : 2 112 Кбит/сек
Ширина : 1 024 пикселя
Высота : 436 пикселей
Соотношение сторон : 2,35:1
Режим частоты кадров : Постоянный
Частота кадров : 23,976 (24000/1001) кадра/сек
Цветовое пространство : YUV
Субдискретизация насыщенности : 4:2:0
Битовая глубина : 8 бит
Тип развёртки : Прогрессивная
Бит/(Пиксели*Кадры) : 0.197
Размер потока : 1,53 Гбайт (82%)
Библиотека кодирования : x264 core 157 r2958 57baac4
Настройки программы : cabac=1 / ref=12 / deblock=1:-3:-3 / analyse=0x3:0x113 / me=umh / subme=11 / psy=1 / psy_rd=1.00:0.05 / mixed_ref=1 / me_range=32 / chroma_me=1 / trellis=2 / 8x8dct=1 / cqm=0 / deadzone=21,11 / fast_pskip=0 / chroma_qp_offset=-3 / threads=8 / lookahead_threads=2 / sliced_threads=0 / nr=0 / decimate=0 / interlaced=0 / bluray_compat=0 / constrained_intra=0 / bframes=12 / b_pyramid=2 / b_adapt=2 / b_bias=0 / direct=3 / weightb=1 / open_gop=0 / weightp=2 / keyint=240 / keyint_min=24 / scenecut=40 / intra_refresh=0 / rc=2pass / mbtree=0 / bitrate=2112 / ratetol=1.0 / qcomp=0.60 / qpmin=0 / qpmax=69 / qpstep=4 / cplxblur=20.0 / qblur=0.5 / ip_ratio=1.40 / pb_ratio=1.30 / aq=1:1.00
Default : Да
Forced : Нет
Цветовой диапазон : Limited
Основные цвета : BT.709
Характеристики трансфера : BT.709
Коэффициенты матрицы : BT.709

Аудио
Идентификатор : 2
Формат : AC-3
Формат/Информация : Audio Coding 3
Коммерческое название : Dolby Digital
Идентификатор кодека : A_AC3
Продолжительность : 1 ч. 43 м.
Вид битрейта : Постоянный
Битрейт : 448 Кбит/сек
Каналы : 6 каналов
Channel layout : L R C LFE Ls Rs
Частота : 48,0 КГц
Частота кадров : 31,250 кадров/сек (1536 SPF)
Метод сжатия : С потерями
Размер потока : 333 Мбайт (17%)
Заголовок : [MVO] Jaskier | KinoPub
Язык : Russian
Service kind : Complete Main
Default : Да
Forced : Нет

Текст
Идентификатор : 3
Формат : UTF-8
Идентификатор кодека : S_TEXT/UTF8
Идентификатор кодека/Информация : UTF-8 Plain Text
Продолжительность : 1 ч. 42 м.
Битрейт : 41 бит/сек
Count of elements : 1297
Размер потока : 31,3 Кбайт (0%)
Язык : English
Default : Нет
Forced : Нет

pb.wtf



Скачать Мужские слезы через торрент https://i115.fastpic.org/big/2021/0919/e0/656d72fd41219da31255b8f3fe75c1e0.jpg Скачать, смотреть онлайн Мужские слезы бесплантно в хорошем качестве Описание: После того как жену с ребенком конезаводчика и победителя Кентуккийского дерби по имени Майк убили, он впал в депрессию, заливая ... 9.8 10 6
Торрент: Зарегистрирован [2021-09-19 09:43] · скачан: 108 раз
Статус: √ проверено
Размер: 1.86 GB
Как cкачать? Как скачать Мужские слезы через торрент | UTorrent

% Раздел Тема Автор DL S | L
Фильмы 2021 [DVDrip, WEB-DLRip, HDrip] (DUB, MVO) [ 1.9 GB ] Мужские слезы / Cry Macho [2021 WEB-DLRip-AVC] от ExKinoRay Lithuania Скачать
3 | 0
Фильмы 2021 [DVDrip, WEB-DLRip, HDrip] (DUB, MVO) [ 1.46 GB ] Мужские слезы / Cry Macho [2021 WEB-DLRip] bober100 Скачать
6 | 0
Ultra HD (UHD: 2K, 4K, 8K) — видео сверхвысокой чёткости [ 13.45 GB ] Мужские слезы / Cry Macho [2021 UHD WEB-DL-HEVC 2160p] bober100 Скачать
5 | 0
Фильмы (WEB-DL 720p, 1080p) [ 6.53 GB ] Мужские слезы / Cry Macho [2021 WEB-DL 1080p] bober100 Скачать
3 | 0
Фильмы (WEB-DL 720p, 1080p) [ 3.06 GB ] Мужские слезы / Cry Macho [2021 WEB-DL 720p] MVO [Jaskier] bober100 Скачать
5 | 0
Фильмы (WEB-DL 720p, 1080p) [ 6.58 GB ] Мужские слезы / Cry Macho [2021 WEB-DL 1080p] MVO [Jaskier] bober100 Скачать
3 | 0

28-11-2019 20:33  

Отключить всю рекламу на сайте

    Дорогой пользователь! Огромная просьба, поблагодарите релизера, оцените раздачу и оставьте свои комментарий, если Вы скачали Мужские слезы через торрент бесплатно!
    Комментировать посты могут только пользователи прошедшие не сложную регистрацию
    Показать сообщения:    

    Мужские слезы через торрент
    Скачать бесплатно Мужские слезы
    Мужские слезы скачать торрент
    Мужские слезы смотреть онлайн
    Cкачать фильм Мужские слезы бесплатно
    Мужские слезы скачать торрент в хорошем качестве
    Мужские слезы смотреть онлайн бесплатно в хорошем качестве


    Вы не можете начинать темы
    Вы не можете отвечать на сообщения
    Вы не можете редактировать свои сообщения
    Вы не можете удалять свои сообщения
    Вы не можете голосовать в опросах
    Вы не можете прикреплять файлы к сообщениям
    Вы можете скачивать файлы