Присоединяйтесь к нам в Telegram!, здесь всегда актуальный адрес сайта, оперативная поддержка и многое другое!!

>

5.9

iTunes

7.4

iTunes

9.4

1 сезон

1

7.4

2 сезон

7.2

iTunes

7.3

1 сезон

13

6.1

iTunes

8.3

GOG

30

ULTIMATE

pack

9.9

Лицензия

ВАЖНО

ИГРА 18+

pack

7.3

RePack

MK11

7.7

RePack

jed

7.8

RePack

fifa19

8.5

RePack

RDR2

RePack

NEED FOR SPEED™ PAYBACK

5 сезон

9 сезон

Бесстыжие 9 сезон

Все сериалы

все сериалы на PB.wtf

RePack

FAR CRY 5

Anonymous, добрый день, мы катастрофически не успеваем собрать деньги на оплату серверов, помогите нам пожалуйста 5,10,15р., для нас важна любая помощь . В качестве благодарности мы отключим Вам всю рекламу на сайте (укажите свой ник в строку Ваше имя)!

×
  
Magnet ссылка

За гранью жизни / Out of Death (Майк Бёрнс) [2021, Триллер, криминал, BDRip-AVC] DUB [iTunes] pb.wtf

За гранью жизни через торрент pb.wtf

Раздают: 1 [ 0 KB/s ]
Размер: 1.93 GB | Добавлен: 2 мес. 13 д. назад | Торрент скачан:59 раз
Смотреть онлайн За гранью жизни | Скачать    Ребята, помогите собрать деньги на оплату серверов!!!

19-09-2021 09:56 За гранью жизни Скачать торрент  

За гранью жизни | Out of Death
Год выпуска: 2021
Страна: США
Выпущено: Emmett/Furla/Oasis Films (EFO Films), SSS Entertainment, BondIt Media Capital
Жанр: Триллер, криминал
Продолжительность: 01:35:43
Перевод: Дублированный | iTunes
Субтитры: английские

Режиссер: Майк Бёрнс

rating

В ролях: Джейми Кинг, Брюс Уиллис, Лорин Кент, Келли Грейсон, Меган Леонард, Майкл Сироу, Тайлер Джон Олсон, Оливер Тревена, Майк Бёрнс, Адам Уэль Поттер

Описание: Фотограф Шеннон Мэтерс невольно становится свидетелем сделки с наркотиками, во время которой полицейские убивают неизвестного. Она успевает сделать несколько снимков, но ее засекают. Шеннон удается бежать, но преступные копы идут за ней по пятам. Егерь Джек Харрис, офицер полиции в отставке, помогает ей укрыться от преследования, но можно ли доверять ему?

Качество: BDRip-AVC
Формат: MKV

Видео: MPEG-4 AVC, 2500 Кбит/сек, 1024x428, 23.976 fps
Аудио: 48 kHz, AC3 Dolby Digital, 3/2 (L, C, R, l, r) + LFE ch, ~384 Kbps
скриншот  скриншот  скриншот  скриншот  скриншот  

Общее
Уникальный идентификатор : 9154510816765630477801025311826600272 (0x6E3183B094B830C95A25A74CF996150)
Полное имя : E:TorrentsOut.of.Death.2021.BDRip-AVC_JNS82.mkv
Формат : Matroska
Версия формата : Version 4
Размер файла : 1,93 Гбайт
Продолжительность : 1 ч. 35 м.
Общий поток : 2 884 Кбит/сек
Название фильма : Out.of.Death.2021.BDRip-AVC_JNS82
Дата кодирования : UTC 2021-09-19 09:32:31
Программа кодирования : mkvmerge v59.0.0 ('Shining Star') 64-bit
Библиотека кодирования : libebml v1.4.2 + libmatroska v1.6.4

Видео
Идентификатор : 1
Формат : AVC
Формат/Информация : Advanced Video Codec
Профиль формата : High@L4.1
Настройки формата : CABAC / 11 Ref Frames
Параметр CABAC формата : Да
Параметр RefFrames формата : 11 кадров
Идентификатор кодека : V_MPEG4/ISO/AVC
Продолжительность : 1 ч. 35 м.
Битрейт : 2 500 Кбит/сек
Ширина : 1 024 пикселя
Высота : 428 пикселей
Соотношение сторон : 2,40:1
Режим частоты кадров : Постоянный
Частота кадров : 23,976 (24000/1001) кадра/сек
Цветовое пространство : YUV
Субдискретизация насыщенности : 4:2:0
Битовая глубина : 8 бит
Тип развёртки : Прогрессивная
Бит/(Пиксели*Кадры) : 0.238
Размер потока : 1,67 Гбайт (87%)
Библиотека кодирования : x264 core 157 r2958 57baac4
Настройки программы : cabac=1 / ref=11 / deblock=1:-3:-3 / analyse=0x3:0x113 / me=umh / subme=11 / psy=1 / psy_rd=1.00:0.05 / mixed_ref=1 / me_range=32 / chroma_me=1 / trellis=2 / 8x8dct=1 / cqm=0 / deadzone=21,11 / fast_pskip=0 / chroma_qp_offset=-3 / threads=8 / lookahead_threads=2 / sliced_threads=0 / nr=0 / decimate=0 / interlaced=0 / bluray_compat=0 / constrained_intra=0 / bframes=11 / b_pyramid=2 / b_adapt=2 / b_bias=0 / direct=3 / weightb=1 / open_gop=0 / weightp=2 / keyint=24 / keyint_min=13 / scenecut=40 / intra_refresh=0 / rc=2pass / mbtree=0 / bitrate=2500 / ratetol=1.0 / qcomp=0.60 / qpmin=0 / qpmax=69 / qpstep=4 / cplxblur=20.0 / qblur=0.5 / ip_ratio=1.40 / pb_ratio=1.30 / aq=1:1.00
Язык : English
Default : Да
Forced : Нет

Аудио
Идентификатор : 2
Формат : AC-3
Формат/Информация : Audio Coding 3
Коммерческое название : Dolby Digital
Идентификатор кодека : A_AC3
Продолжительность : 1 ч. 35 м.
Вид битрейта : Постоянный
Битрейт : 384 Кбит/сек
Каналы : 6 каналов
Channel layout : L R C LFE Ls Rs
Частота : 48,0 КГц
Частота кадров : 31,250 кадров/сек (1536 SPF)
Метод сжатия : С потерями
Размер потока : 263 Мбайт (13%)
Заголовок : iTunes
Язык : Russian
Service kind : Complete Main
Default : Да
Forced : Нет

Текст
Идентификатор : 3
Формат : UTF-8
Идентификатор кодека : S_TEXT/UTF8
Идентификатор кодека/Информация : UTF-8 Plain Text
Продолжительность : 1 ч. 35 м.
Битрейт : 53 бит/сек
Count of elements : 1365
Размер потока : 37,5 Кбайт (0%)
Язык : English
Default : Нет
Forced : Нет

Меню
00:00:00.000 : :Chapter 01
00:07:45.590 : :Chapter 02
00:16:02.962 : :Chapter 03
00:24:28.633 : :Chapter 04
00:32:17.852 : :Chapter 05
00:40:35.933 : :Chapter 06
00:50:38.952 : :Chapter 07
00:59:27.313 : :Chapter 08
01:08:57.508 : :Chapter 09
01:17:40.781 : :Chapter 10
01:24:30.273 : :Chapter 11
01:32:58.281 : :Chapter 12
01:35:42.528 : :Chapter 13

pb.wtf



Скачать За гранью жизни через торрент https://i3.imageban.ru/out/2021/09/18/e7c7d4620e7502c4cd5551b2f0279ccc.png Скачать, смотреть онлайн За гранью жизни бесплантно в хорошем качестве Описание: Фотограф Шеннон Мэтерс невольно становится свидетелем сделки с наркотиками, во время которой полицейские убивают неизвестного. ... 10 10 6
Торрент: Зарегистрирован [2021-09-19 09:56] · скачан: 59 раз
Статус: √ проверено
Размер: 1.93 GB
Как cкачать? Как скачать За гранью жизни через торрент | UTorrent

% Раздел Тема Автор DL S | L
Фильмы 2021 [DVDrip, WEB-DLRip, HDrip] (DUB, MVO) [ 2.05 GB ] За гранью жизни / Out of Death [2021 HDRip-AVC] от MediaBit Lithuania Скачать
2 | 0
Фильмы (Blu-ray, BD-Remux, HDDVD) [ 20.04 GB ] За гранью жизни / Out of Death [2021 BD Remux 1080p] bober100 Скачать
1 | 0
Фильмы 2021 [DVDrip, WEB-DLRip, HDrip] (DUB, MVO) [ 1.46 GB ] За гранью жизни / Out of Death [2021 BDRip] bober100 Скачать
4 | 0
Фильмы [HD 720p, 1080p] (Хороший звук DUB, MVO) [ 4.7 GB ] За гранью жизни / Out of Death [2021 BDRip 720p] bober100 Скачать
4 | 0
Фильмы [HD 720p, 1080p] (Хороший звук DUB, MVO) [ 11.33 GB ] За гранью жизни / Out of Death [2021 BDRip 1080p] bober100 Скачать
1 | 0

28-11-2019 20:33  

Отключить всю рекламу на сайте

    Дорогой пользователь! Огромная просьба, поблагодарите релизера, оцените раздачу и оставьте свои комментарий, если Вы скачали За гранью жизни через торрент бесплатно!
    Комментировать посты могут только пользователи прошедшие не сложную регистрацию
    Показать сообщения:    

    За гранью жизни через торрент
    Скачать бесплатно За гранью жизни
    За гранью жизни скачать торрент
    За гранью жизни смотреть онлайн
    Cкачать фильм За гранью жизни бесплатно
    За гранью жизни скачать торрент в хорошем качестве
    За гранью жизни смотреть онлайн бесплатно в хорошем качестве


    Вы не можете начинать темы
    Вы не можете отвечать на сообщения
    Вы не можете редактировать свои сообщения
    Вы не можете удалять свои сообщения
    Вы не можете голосовать в опросах
    Вы не можете прикреплять файлы к сообщениям
    Вы можете скачивать файлы