Присоединяйтесь к нам в Telegram!, здесь всегда актуальный адрес сайта, оперативная поддержка и многое другое!!

>

5.9

iTunes

7.4

iTunes

9.4

1 сезон

1

7.4

2 сезон

7.2

iTunes

7.3

1 сезон

13

6.1

iTunes

8.3

GOG

30

ULTIMATE

pack

9.9

Лицензия

ВАЖНО

ИГРА 18+

pack

7.3

RePack

MK11

7.7

RePack

jed

7.8

RePack

fifa19

8.5

RePack

RDR2

RePack

NEED FOR SPEED™ PAYBACK

5 сезон

9 сезон

Бесстыжие 9 сезон

Все сериалы

все сериалы на PB.wtf

RePack

FAR CRY 5

Anonymous, доброе утро, мы катастрофически не успеваем собрать деньги на оплату серверов, помогите нам пожалуйста 5,10,15р., для нас важна любая помощь . В качестве благодарности мы отключим Вам всю рекламу на сайте (укажите свой ник в строку Ваше имя)!

×
  
Magnet ссылка

Чёрная Вдова / Black Widow (Кейт Шортланд) [2021, фантастика, боевик, приключения, HDRip-AVC] DUB, MVO [HDRezka Studio, iTunes] от MediaBit pb.wtf

Чёрная Вдова через торрент pb.wtf

Раздают: 2 [ 35 KB/s ]
Размер: 3.05 GB | Добавлен: 2 мес. 12 д. назад | Торрент скачан:146 раз
Смотреть онлайн Чёрная Вдова | Скачать    Ребята, помогите собрать деньги на оплату серверов!!!

19-09-2021 13:52 Чёрная Вдова Скачать торрент  


Чёрная Вдова / Black Widow
Информация о фильме:
Название: Чёрная Вдова
Оригинальное название: Black Widow
Год выхода: 2021
Жанр: Фантастика, боевик, приключения
Режиссер: Кейт Шортланд

В ролях: Скарлетт Йоханссон, Флоренс Пью, Дэвид Харбор, Рэйчел Вайс, О. Т. Фагбенли, Рэй Уинстон, Мишель Ли, Оливье Рихтерс, Ахмед Бакаре, Иоланда Лайнс, Эвер Андерсон, Ольга Куриленко

Описание: Сольный проект о русской разведчице Наташе Романофф, известной как Черная Вдова, рассказывает о событиях из жизни супергероини задолго до встречи со Мстителями. Спустя годы после побега из дома, где Наташа жила фальшивой жизнью со своей «семьей», героиня решает отомстить русскому магнату Дрейкову, ответственному за то, что она, как и множество других девушек, была превращена в орудие убийства. Пытаясь отыскать злодея, Наташа воссоединяется с «родственниками».



Страна: США
Студия: Marvel Studios Inc.
Продолжительность: 02:13:46
Перевод: Профессиональный (многоголосый, закадровый) - HDRezka Studio , Дублированный - iTunes



Информация о файле:
Кодек: AVC
Формат: MKV
Качество: HDRip-AVC
Видео: MPEG-4 AVC, 1024x428, 23.976 fps, 1985 kbps
Аудио RU: AC3, 6 ch, 48 kHz, 384 kbps | iTunes
Аудио RU: AC3, 6 ch, 48 kHz, 448 kbps | HDRezka Studio
Аудио EN: AC3, 6 ch, 48 kHz, 448 kbps
Субтитры: Русские (2 x Forced, full), английские

x264 info: frame I:1808 Avg QP:14.29 size: 79660
x264 info: frame P:51250 Avg QP:18.52 size: 20444
x264 info: frame B:139391 Avg QP:21.38 size: 5738
x264 info: consecutive B-frames: 4.9% 6.3% 13.4% 26.1% 17.3% 25.2% 3.5% 1.4% 0.8% 0.5% 0.1% 0.1% 0.4%
General
Unique ID : 123778142084867715005674361720881386794 (0x5D1ECD9362E4920FDCA1E7587815952A)
Complete name : D:uTorrentРипы wolf1245Black..Widow.2021.DUB.MVO.HDRip-AVC.[-=wolf1245.MediaBit=-].mkv
Format : Matroska
Format version : Version 4
File size : 3.05 GiB
Duration : 2 h 13 min
Overall bit rate : 3 267 kb/s
Movie name : Black..Widow.2021.DUB.MVO.HDRip-AVC.[-=wolf1245.MediaBit=-]
Encoded date : UTC 2021-09-19 13:36:37
Writing application : mkvmerge v61.0.0 ('So') 64-bit
Writing library : libebml v1.4.2 + libmatroska v1.6.4
Video
ID : 1
Format : AVC
Format/Info : Advanced Video Codec
Format profile : High@L4.1
Format settings : CABAC / 14 Ref Frames
Format settings, CABAC : Yes
Format settings, Reference frames : 14 frames
Codec ID : V_MPEG4/ISO/AVC
Duration : 2 h 13 min
Bit rate : 1 985 kb/s
Width : 1 024 pixels
Height : 428 pixels
Display aspect ratio : 2.40:1
Frame rate mode : Constant
Frame rate : 23.976 (24000/1001) FPS
Color space : YUV
Chroma subsampling : 4:2:0
Bit depth : 8 bits
Scan type : Progressive
Bits/(Pixel*Frame) : 0.189
Stream size : 1.85 GiB (61%)
Title : [-=wolf1245.MediaBit=-]
Writing library : x264 core 161 r3020 d198931
Encoding settings : cabac=1 / ref=14 / deblock=1:-3:-3 / analyse=0x3:0x133 / me=umh / subme=11 / psy=1 / psy_rd=1.00:0.05 / mixed_ref=1 / me_range=48 / chroma_me=1 / trellis=2 / 8x8dct=1 / cqm=0 / deadzone=21,11 / fast_pskip=1 / chroma_qp_offset=-3 / threads=10 / lookahead_threads=2 / sliced_threads=0 / nr=0 / decimate=1 / interlaced=0 / bluray_compat=0 / constrained_intra=0 / bframes=12 / b_pyramid=2 / b_adapt=2 / b_bias=0 / direct=3 / weightb=1 / open_gop=0 / weightp=2 / keyint=240 / keyint_min=24 / scenecut=40 / intra_refresh=0 / rc_lookahead=60 / rc=2pass / mbtree=1 / bitrate=1985 / ratetol=1.0 / qcomp=0.60 / qpmin=0 / qpmax=69 / qpstep=4 / cplxblur=20.0 / qblur=0.5 / vbv_maxrate=50000 / vbv_bufsize=62500 / nal_hrd=none / filler=0 / ip_ratio=1.40 / aq=3:0.80
Language : English
Default : Yes
Forced : No
Audio #1
ID : 2
Format : AC-3
Format/Info : Audio Coding 3
Commercial name : Dolby Digital
Codec ID : A_AC3
Duration : 2 h 13 min
Bit rate mode : Constant
Bit rate : 384 kb/s
Channel(s) : 6 channels
Channel layout : L R C LFE Ls Rs
Sampling rate : 48.0 kHz
Frame rate : 31.250 FPS (1536 SPF)
Compression mode : Lossy
Stream size : 367 MiB (12%)
Title : iTunes | DUB
Language : Russian
Service kind : Complete Main
Default : Yes
Forced : No
Audio #2
ID : 3
Format : AC-3
Format/Info : Audio Coding 3
Commercial name : Dolby Digital
Codec ID : A_AC3
Duration : 2 h 13 min
Bit rate mode : Constant
Bit rate : 448 kb/s
Channel(s) : 6 channels
Channel layout : L R C LFE Ls Rs
Sampling rate : 48.0 kHz
Frame rate : 31.250 FPS (1536 SPF)
Compression mode : Lossy
Stream size : 429 MiB (14%)
Title : MVO [HDRezka Studio]
Language : Russian
Service kind : Complete Main
Default : No
Forced : No
Audio #3
ID : 4
Format : AC-3
Format/Info : Audio Coding 3
Commercial name : Dolby Digital
Codec ID : A_AC3
Duration : 2 h 13 min
Bit rate mode : Constant
Bit rate : 448 kb/s
Channel(s) : 6 channels
Channel layout : L R C LFE Ls Rs
Sampling rate : 48.0 kHz
Frame rate : 31.250 FPS (1536 SPF)
Compression mode : Lossy
Stream size : 429 MiB (14%)
Title : Original
Language : English
Service kind : Complete Main
Default : No
Forced : No
Text #1
ID : 5
Format : UTF-8
Codec ID : S_TEXT/UTF8
Codec ID/Info : UTF-8 Plain Text
Duration : 2 h 10 min
Bit rate : 1 b/s
Count of elements : 27
Stream size : 995 Bytes (0%)
Title : Forced [iTunes]
Language : Russian
Default : Yes
Forced : Yes
Text #2
ID : 6
Format : UTF-8
Codec ID : S_TEXT/UTF8
Codec ID/Info : UTF-8 Plain Text
Duration : 2 h 12 min
Bit rate : 59 b/s
Count of elements : 1255
Stream size : 58.2 KiB (0%)
Title : Full [iTunes]
Language : Russian
Default : No
Forced : No
Text #3
ID : 7
Format : UTF-8
Codec ID : S_TEXT/UTF8
Codec ID/Info : UTF-8 Plain Text
Duration : 2 h 11 min
Bit rate : 1 b/s
Count of elements : 44
Stream size : 1.71 KiB (0%)
Title : Forced [HDRezka Studio]
Language : Russian
Default : No
Forced : No
Text #4
ID : 8
Format : UTF-8
Codec ID : S_TEXT/UTF8
Codec ID/Info : UTF-8 Plain Text
Duration : 2 h 12 min
Bit rate : 67 b/s
Count of elements : 1282
Stream size : 65.7 KiB (0%)
Title : Full
Language : Russian
Default : No
Forced : No
Text #5
ID : 9
Format : UTF-8
Codec ID : S_TEXT/UTF8
Codec ID/Info : UTF-8 Plain Text
Duration : 2 h 13 min
Bit rate : 46 b/s
Count of elements : 1630
Stream size : 45.7 KiB (0%)
Title : SDH
Language : English
Default : No
Forced : No
Menu
00:00:00.000 : :Chapter 01
00:04:55.170 : :Chapter 02
00:13:10.081 : :Chapter 03
00:16:24.567 : :Chapter 04
00:18:41.871 : :Chapter 05
00:21:41.634 : :Chapter 06
00:25:40.789 : :Chapter 07
00:30:06.346 : :Chapter 08
00:39:05.468 : :Chapter 09
00:44:46.350 : :Chapter 10
00:53:25.994 : :Chapter 11
01:01:38.153 : :Chapter 12
01:07:46.271 : :Chapter 13
01:11:40.671 : :Chapter 14
01:17:48.789 : :Chapter 15
01:27:19.234 : :Chapter 16
01:33:33.441 : :Chapter 17
01:37:37.477 : :Chapter 18
01:41:18.656 : :Chapter 19
01:45:37.873 : :Chapter 20
01:51:41.653 : :Chapter 21
01:57:09.105 : :Chapter 22
02:01:59.687 : :Chapter 23
02:04:25.458 : :Chapter 24
Релиз от: &
Автор релиза:
pb.wtf



Скачать Чёрная Вдова через торрент https://i115.fastpic.org/big/2021/0919/d7/9b636a8a795044d77f6692747cf75cd7.jpg Скачать, смотреть онлайн Чёрная Вдова бесплантно в хорошем качестве Описание: Сольный проект о русской разведчице Наташе Романофф, известной как Черная Вдова, рассказывает о событиях из жизни супергероини ... 8.7 10 7
Торрент: Зарегистрирован [2021-09-19 13:52] · скачан: 146 раз
Статус: √ проверено
Размер: 3.05 GB
Как cкачать? Как скачать Чёрная Вдова через торрент | UTorrent

28-11-2019 20:33  

Отключить всю рекламу на сайте

    Дорогой пользователь! Огромная просьба, поблагодарите релизера, оцените раздачу и оставьте свои комментарий, если Вы скачали Чёрная Вдова через торрент бесплатно!
    Комментировать посты могут только пользователи прошедшие не сложную регистрацию
    Показать сообщения:    

    Чёрная Вдова через торрент
    Скачать бесплатно Чёрная Вдова
    Чёрная Вдова скачать торрент
    Чёрная Вдова смотреть онлайн
    Cкачать фильм Чёрная Вдова бесплатно
    Чёрная Вдова скачать торрент в хорошем качестве
    Чёрная Вдова смотреть онлайн бесплатно в хорошем качестве


    Вы не можете начинать темы
    Вы не можете отвечать на сообщения
    Вы не можете редактировать свои сообщения
    Вы не можете удалять свои сообщения
    Вы не можете голосовать в опросах
    Вы не можете прикреплять файлы к сообщениям
    Вы можете скачивать файлы