Anonymous, добрый день, присоединяйтесь к нам в Telegram!, здесь всегда актуальный адрес сайта, оперативная поддержка и многое другое!

>

5.6

iTunes

7.4

iTunes

7.9

MVO

1

7.7

1 сезон

6.8

iTunes

7.3

1 сезон

13

6.7

1 сезон

8.3

RePack

30

ULTIMATE

pack

9.9

Лицензия

ВАЖНО

ИГРА 18+

pack

7.3

RePack

MK11

7.7

RePack

jed

7.8

RePack

fifa19

8.5

RePack

RDR2

RePack

NEED FOR SPEED™ PAYBACK

4 сезон

9 сезон

Бесстыжие 9 сезон

Все сериалы

все сериалы на PB.wtf

RePack

FAR CRY 5

Anonymous, добрый день, мы катастрофически не успеваем собрать деньги на оплату серверов, помогите нам пожалуйста 5,10,15р., для нас важна любая помощь . В качестве благодарности мы отключим Вам всю рекламу на сайте (укажите свой ник в строку Ваше имя)!

×
  
Magnet ссылка

Время / Old (М. Найт Шьямалан) [2021, триллер, драма, фантастика, BDRip 1080p] [DUB] [iTunes] pb.wtf

Время через торрент pb.wtf

Раздают: 34 [ 2 MB/s ] Качают: 1 [ 0 KB/s ]
Размер: 12.93 GB | Добавлен: 6 д. назад | Торрент скачан:256 раз
Смотреть онлайн Время | Скачать    Ребята, помогите собрать деньги на оплату серверов!!!

20-09-2021 18:10 Время Скачать торрент  

Время / Old Год выхода: 2021
Жанр: триллер, драма, фантастика
Страна: США
Продолжительность: 01:48:27
Перевод: Дублированный [iTunes]
Субтитры: Русские (Forced, full), английские

Режиссер: М. Найт Шьямалан

В ролях: Гаэль Гарсиа Берналь, Вики Крипс, Руфус Сьюэлл, Кен Люн, Никки Амука-Бёрд, Эбби Ли, Аарон Пьер, Алекс Вулф, Эмбет Дэвидц, Элайза Сканлен

О фильме: Отправившись в отпуск на тропический остров, семья с двумя детьми решает последовать совету менеджера отеля и посетить прекрасный уединенный пляж. Кроме них на пляже оказываются и другие постояльцы: семейство с маленькой дочкой, пара среднего возраста и популярный репер. Но вскоре расслабленный отдых сменяется паникой, когда компания обнаруживает труп и замечает, что дети вдруг начали очень быстро взрослеть.

rating

Качество: BDRip 1080p
Формат: MKV
Видео: MPEG-4 AVC, 1920x804, 16.0 Mbit/s, 23.976 fps
Аудио rus: 48 kHz, AC3, 5.1, 384 Kbps | iTunes |
Аудио eng: 48 kHz, AC3, 5.1, 640 Kbps | Оригинал | ENG

релиз -
скриншот  скриншот  скриншот  скриншот  скриншот  
General
Unique ID : 157889226984098731860664942825445720366 (0x76C85BE85F86D0BC6DAA69ECF373012E)
Complete name : E:VideoOld.2021.BDRip.1080p.seleZen.mkv
Format : Matroska
Format version : Version 4
File size : 12.9 GiB
Duration : 1 h 48 min
Overall bit rate : 17.1 Mb/s
Movie name : Old 2021 from seleZen
Encoded date : UTC 2021-10-13 13:18:05
Writing application : mkvmerge v59.0.0 ('Shining Star') 64-bit
Writing library : libebml v1.4.2 + libmatroska v1.6.4

Video
ID : 1
Format : AVC
Format/Info : Advanced Video Codec
Format profile : High@L4.1
Format settings : CABAC / 5 Ref Frames
Format settings, CABAC : Yes
Format settings, Reference frames : 5 frames
Codec ID : V_MPEG4/ISO/AVC
Duration : 1 h 48 min
Bit rate : 16.0 Mb/s
Width : 1 920 pixels
Height : 804 pixels
Display aspect ratio : 2.40:1
Frame rate mode : Constant
Frame rate : 23.976 (24000/1001) FPS
Color space : YUV
Chroma subsampling : 4:2:0
Bit depth : 8 bits
Scan type : Progressive
Bits/(Pixel*Frame) : 0.434
Stream size : 12.2 GiB (94%)
Title : iFT
Writing library : x264 core 163 r3059+79M ~ Encoded by Mocunaman in Portugal
Encoding settings : cabac=1 / ref=5 / deblock=1:-3:-3 / analyse=0x3:0x113 / me=umh / subme=11 / psy=1 / fade_compensate=0.00 / psy_rd=1.03:0.00 / mixed_ref=1 / me_range=48 / chroma_me=1 / trellis=2 / 8x8dct=1 / cqm=0 / deadzone=21,11 / fast_pskip=0 / chroma_qp_offset=-2 / threads=25 / lookahead_threads=6 / sliced_threads=0 / nr=0 / decimate=0 / interlaced=0 / bluray_compat=0 / constrained_intra=0 / fgo=0 / bframes=10 / b_pyramid=2 / b_adapt=2 / b_bias=0 / direct=3 / weightb=1 / open_gop=0 / weightp=2 / keyint=250 / keyint_min=23 / scenecut=40 / intra_refresh=0 / rc_lookahead=60 / rc=crf / mbtree=0 / crf=17.0000 / qcomp=0.60 / qpmin=0:0:0 / qpmax=69:69:69 / qpstep=4 / vbv_maxrate=62500 / vbv_bufsize=78125 / crf_max=0.0 / nal_hrd=none / filler=0 / ip_ratio=1.30 / pb_ratio=1.20 / aq=3:0.78 / aq-sensitivity=10.00 / aq-factor=1.00:1.00:1.00 / aq2=0 / aq3=0 / zones=0,1246,crf=15/10673,14515,crf=16/22339,22819,crf=16.5/27003,27380,crf=16.5/44520,45408,crf=16/96624,120120,crf=16/126813,128709,crf=16.5/141487,142602,crf=16.5
Language : English
Default : Yes
Forced : No
Color range : Limited
Color primaries : BT.709
Transfer characteristics : BT.709
Matrix coefficients : BT.709

Audio #1
ID : 2
Format : AC-3
Format/Info : Audio Coding 3
Commercial name : Dolby Digital
Codec ID : A_AC3
Duration : 1 h 48 min
Bit rate mode : Constant
Bit rate : 384 kb/s
Channel(s) : 6 channels
Channel layout : L R C LFE Ls Rs
Sampling rate : 48.0 kHz
Frame rate : 31.250 FPS (1536 SPF)
Compression mode : Lossy
Stream size : 298 MiB (2%)
Title : iTunes
Language : Russian
Service kind : Complete Main
Default : Yes
Forced : Yes

Audio #2
ID : 3
Format : AC-3
Format/Info : Audio Coding 3
Commercial name : Dolby Digital
Codec ID : A_AC3
Duration : 1 h 48 min
Bit rate mode : Constant
Bit rate : 640 kb/s
Channel(s) : 6 channels
Channel layout : L R C LFE Ls Rs
Sampling rate : 48.0 kHz
Frame rate : 31.250 FPS (1536 SPF)
Compression mode : Lossy
Stream size : 496 MiB (4%)
Title : Original
Language : English
Service kind : Complete Main
Default : No
Forced : No

Text #1
ID : 4
Format : UTF-8
Codec ID : S_TEXT/UTF8
Codec ID/Info : UTF-8 Plain Text
Duration : 1 h 42 min
Bit rate : 0 b/s
Count of elements : 4
Stream size : 93.0 Bytes (0%)
Title : Forced
Language : Russian
Default : Yes
Forced : Yes

Text #2
ID : 5
Format : UTF-8
Codec ID : S_TEXT/UTF8
Codec ID/Info : UTF-8 Plain Text
Duration : 1 h 42 min
Bit rate : 81 b/s
Count of elements : 1290
Stream size : 60.8 KiB (0%)
Title : Full
Language : Russian
Default : No
Forced : No

Text #3
ID : 6
Format : UTF-8
Codec ID : S_TEXT/UTF8
Codec ID/Info : UTF-8 Plain Text
Duration : 1 h 39 min
Bit rate : 52 b/s
Count of elements : 1201
Stream size : 38.3 KiB (0%)
Title : Full
Language : English
Default : No
Forced : No

Text #4
ID : 7
Format : UTF-8
Codec ID : S_TEXT/UTF8
Codec ID/Info : UTF-8 Plain Text
Duration : 1 h 43 min
Bit rate : 58 b/s
Count of elements : 1415
Stream size : 44.7 KiB (0%)
Title : SDH
Language : English
Default : No
Forced : No

Menu
00:00:00.000 : Chapter 01
00:05:50.100 : Chapter 02
00:13:46.617 : Chapter 03
00:18:35.448 : Chapter 04
00:23:05.676 : Chapter 05
00:28:33.045 : Chapter 06
00:32:43.420 : Chapter 07
00:38:01.654 : Chapter 08
00:43:25.895 : Chapter 09
00:47:54.371 : Chapter 10
00:53:05.808 : Chapter 11
01:01:32.939 : Chapter 12
01:05:11.366 : Chapter 13
01:08:52.337 : Chapter 14
01:12:44.068 : Chapter 15
01:18:59.568 : Chapter 16
01:23:29.796 : Chapter 17
01:29:13.223 : Chapter 18
01:34:26.619 : Chapter 19
01:41:18.281 : Chapter 20
pb.wtf



Скачать Время через торрент https://i115.fastpic.org/big/2021/0920/61/a3bdf2276f16c74a6414c3bc5cd8af61.jpg Скачать, смотреть онлайн Время бесплантно в хорошем качестве О фильме: Отправившись в отпуск на тропический остров, семья с двумя детьми решает последовать совету менеджера отеля и посетить прекрасный ... 9.6 10 24
Info! Золотая раздача, скачанное не засчитывается.
Торрент: Зарегистрирован [2021-10-13 14:53] · скачан: 256 раз
Статус: √ проверено
Размер: 12.93 GB
Как cкачать? Как скачать Время через торрент | UTorrent

% Раздел Тема Автор DL S | L
Ultra HD (UHD: 2K, 4K, 8K) [ 60.99 GB ] Время / Old [2021 UHD BDRemux 2160p ] bober100 Скачать
2 | 1
Ultra HD (UHD: 2K, 4K, 8K) — видео сверхвысокой чёткости [ 68.61 GB ] Время / Old [2021 UHD BDRemux 2160p ] bober100 Скачать
4 | 5
Фильмы (Blu-ray, BD-Remux, HDDVD) [ 25.73 GB ] Время / Old [2021 BD Remux 1080p] bober100 Скачать
10 | 2
Фильмы с украинским озвучиванием [ 12.93 GB ] Время / Час / Old [2021 BDRip 1080p] [Ukr DUB] killermax2013 Скачать
4 | 0
Фильмы (HD 720p, 1080p) (48-60 fps) [ 3.1 GB ] Время / Old [2021 WEB-DLRip - HEVC 1080p 10 bit 60 FPS DUB] dd2d3 Скачать
20 | 0
Фильмы 2021 [DVDrip, WEB-DLRip, HDrip] (DUB, MVO) [ 1.41 GB ] Время / Old [2021 BDRip] - Twi7ter Скачать
150 | 15
Фильмы [HD 720p, 1080p] (Хороший звук DUB, MVO) [ 6.28 GB ] Время / Old [2021 BDRip 720p] DUB [ ] -=BIGBOSS=- Скачать
20 | 0


Последний раз редактировалось: killermax2013 (2021-10-13 14:58), всего редактировалось 6 раз(а)

28-11-2019 20:33  

Отключить всю рекламу на сайте

21-09-2021 05:20 Время Скачать торрент  

нормас фильм.pb.wtf
Kkillermax2013 писал(а):

Согласен! финал порадовал.Хоть и есть много но.. но это ж Шьямалан ))



21-09-2021 22:06 Время Скачать торрент  

хороший необычный фильмpb.wtf



15-10-2021 10:50 Время Скачать торрент  

нормальное кено. пальнуть можно. Шьямалан умеет лучше конечно...pb.wtf



15-10-2021 19:16 Время Скачать торрент  

pirotehnik771 писал(а):

хороший необычный фильм

необычный это точно..pb.wtf



    Дорогой пользователь! Огромная просьба, поблагодарите релизера, оцените раздачу и оставьте свои комментарий, если Вы скачали Время через торрент бесплатно!
    Комментировать посты могут только пользователи прошедшие не сложную регистрацию
    Показать сообщения:    

    Время через торрент
    Скачать бесплатно Время
    Время скачать торрент
    Время смотреть онлайн
    Cкачать фильм Время бесплатно
    Время скачать торрент в хорошем качестве
    Время смотреть онлайн бесплатно в хорошем качестве


    Вы не можете начинать темы
    Вы не можете отвечать на сообщения
    Вы не можете редактировать свои сообщения
    Вы не можете удалять свои сообщения
    Вы не можете голосовать в опросах
    Вы не можете прикреплять файлы к сообщениям
    Вы можете скачивать файлы