Anonymous, добрый вечер, присоединяйтесь к нам в Telegram!, здесь всегда актуальный адрес сайта, оперативная поддержка и многое другое!

>

5.6

iTunes

7.4

iTunes

5.7

MVO

1

7.7

1 сезон

6.8

iTunes

7.3

1 сезон

13

6.7

1 сезон

8.3

RePack

30

ULTIMATE

pack

9.9

Лицензия

ВАЖНО

ИГРА 18+

pack

7.3

RePack

MK11

7.7

RePack

jed

7.8

RePack

fifa19

8.5

RePack

RDR2

RePack

NEED FOR SPEED™ PAYBACK

4 сезон

9 сезон

Бесстыжие 9 сезон

Все сериалы

все сериалы на PB.wtf

RePack

FAR CRY 5

Anonymous, добрый вечер, мы катастрофически не успеваем собрать деньги на оплату серверов, помогите нам пожалуйста 5,10,15р., для нас важна любая помощь . В качестве благодарности мы отключим Вам всю рекламу на сайте (укажите свой ник в строку Ваше имя)!

×
  
Magnet ссылка

Шестнадцать + / Сезон: 1 / Серии: 1-10 из 10 [2021, Драма, мелодрама, музыка, WEBRip] pb.wtf

Шестнадцать + через торрент pb.wtf

Раздают: 2 [ 0 KB/s ]
Размер: 2.25 GB | Добавлен: 16 д. назад | Торрент скачан:14 раз
Смотреть онлайн Шестнадцать + | Скачать    Ребята, помогите собрать деньги на оплату серверов!!!

21-09-2021 04:33 Шестнадцать + Скачать торрент  

Шестнадцать +
Год выпуска: 2021
Страна: Россия
Студия: ООО «Пайнери» по заказу ООО «МТС Медиа»
Жанр: Драма, мелодрама, музыка
Продолжительность: ~ 00:15:00
Субтитры: отсутствуют

Сценарий: Ирина Бас, Анастасия Ледкова, Владимир Бек



В ролях: Виктория Толстоганова, Виталий Щербина, Кристина Кучеренко, Данил Стеклов, Илларион Маров, Мария Милешкина, Никита Ковтунов, Дина Губайдуллина, Григорий Верник, Ростислав Бершауэр, Глафира Голуева, Егор Гуськов, Полина Шелепова, Даниил Киселев, Кристина Корбут, Андрей Грызлов, Евгений Егоров, Мила Ершова, Марина Гришакова, Ульяна Молдованова, Алёна Митрошина, Асель Турдубаева, Давид Сократян, Екатерина Круглова, Любовь Ярлыкова, Илья Хвостиков, Максим Михеев, Людмила Гамуряк, Марк Эйдельштейн

Описание: Музыкальный киноальманах расскажет о том, что волнует современных подростков в период взросления: первая любовь, ревность, зависть, первый сексуальный опыт, принятие своего тела и сексуальности, сепарация от взрослых и попытки доказать свою значимость, одиночество. Каждая из коротких драм и мелодрам в проекте вдохновлена популярной песней.

Качество: WEBRip
Формат: AVI

Видео: XviD, 720x400, ~ 1650 Кбит/с, 0.229 bit/pixel, 25 Кадр/с
Аудио 1: AC3, 48,0 КГц, 2 ch, 192 Кбит/с | С цензурой
Аудио 2: AC3, 48,0 КГц, 2 ch, 192 Кбит/с | Без цензуры (18+)
скриншот  скриншот  скриншот  скриншот  

Общее
Полное имя : D:\Shestnadtsat.2021.WEB-DLRip.wellav\Shestnadtsat.e01.WEB-DLRip.wellav.avi
Формат : AVI
Формат/Информация : Audio Video Interleave
Размер файла : 188 Мбайт
Продолжительность : 12 м. 50 с.
Общий поток : 2 047 Кбит/сек
Программа кодирования : VirtualDubMod 1.5.10.3 (build 2550/release)
Библиотека кодирования : VirtualDubMod build 2550/release

Видео
Идентификатор : 0
Формат : MPEG-4 Visual
Профиль формата : Advanced Simple@L5
Настройки формата : BVOP1
Параметр BVOP формата : 1
Параметр QPel формата : Нет
Параметр GMC формата : Без точки перехода
Параметр матрицы формата : Default (MPEG)
Идентификатор кодека : XVID
Идентификатор кодека/Подсказка : XviD
Продолжительность : 12 м. 50 с.
Битрейт : 1 648 Кбит/сек
Ширина : 720 пикселей
Высота : 400 пикселей
Соотношение сторон : 16:9
Частота кадров : 25,000 кадров/сек
Цветовое пространство : YUV
Субдискретизация насыщенности : 4:2:0
Битовая глубина : 8 бит
Тип развёртки : Прогрессивная
Метод сжатия : С потерями
Бит/(Пиксели*Кадры) : 0.229
Размер потока : 151 Мбайт (81%)
Библиотека кодирования : XviD 73

Аудио #1
Идентификатор : 1
Формат : AC-3
Формат/Информация : Audio Coding 3
Коммерческое название : Dolby Digital
Идентификатор кодека : 2000
Продолжительность : 12 м. 49 с.
Вид битрейта : Постоянный
Битрейт : 192 Кбит/сек
Каналы : 2 канала
Channel layout : L R
Частота : 48,0 КГц
Частота кадров : 31,250 кадров/сек (1536 SPF)
Метод сжатия : С потерями
Размер потока : 17,6 Мбайт (9%)
Выравнивание : Разделение по промежуткам
Продолжительность промежутка : 40 мс. (1,00 видеокадр)
Время предзагрузки промежутка : 500 мс.
Service kind : Complete Main

Аудио #2
Идентификатор : 2
Формат : AC-3
Формат/Информация : Audio Coding 3
Коммерческое название : Dolby Digital
Идентификатор кодека : 2000
Продолжительность : 12 м. 49 с.
Вид битрейта : Постоянный
Битрейт : 192 Кбит/сек
Каналы : 2 канала
Channel layout : L R
Частота : 48,0 КГц
Частота кадров : 31,250 кадров/сек (1536 SPF)
Метод сжатия : С потерями
Размер потока : 17,6 Мбайт (9%)
Выравнивание : Разделение по промежуткам
Продолжительность промежутка : 40 мс. (1,00 видеокадр)
Время предзагрузки промежутка : 500 мс.
Service kind : Complete Main

Внимание! Раздача ведётся путём добавления новых серий; при каждом добавлении создаётся новый торрент.
Чтобы начать докачку новой серии, пользователям необходимо сделать следующее:
1. Остановить скачивание;
2. Удалить старый торрент у себя из клиента (старые серии удалять не надо);
3. Скачать новый торрент и запустить его у себя в клиенте вместо старого, при этом указать клиенту путь в старую папку куда и должно происходить скачивание новых серий. Ваш клиент при этом должен произвести хеширование (проверку) старой папки и будет докачивать только те серии, которых у вас ещё нет. Старые серии при этом не удаляются, а продолжают раздаваться! Eсли вы уже удалили старые серии, то предотвратить повторную закачку старых серий можно, отжав галочку в соответствующих местах при запуске нового торрента.

pb.wtf



Скачать Шестнадцать + через торрент https://a.radikal.ru/a22/2109/ba/ac38c62702c5.jpg Скачать, смотреть онлайн Шестнадцать + бесплантно в хорошем качестве Описание: Музыкальный киноальманах расскажет о том, что волнует современных подростков в период взросления: первая любовь, ревность, ... 8.5 10 6
Торрент: Зарегистрирован [2021-10-02 17:27] · скачан: 14 раз
Статус: √ проверено
Размер: 2.25 GB
Как cкачать? Как скачать Шестнадцать + через торрент | UTorrent

% Раздел Тема Автор DL S | L
Наши сериалы [ 4.37 GB ] Шестнадцать + / Сезон: 1 / Серии: 1-10 из 10 [2021 музыка WEBRip 720p] bober100 Скачать
3 | 0
Наши сериалы [ 6.78 GB ] Шестнадцать + / Сезон: 1 / Серии: 1-10 из 10 [2021 музыка WEBRip 1080p] bober100 Скачать
3 | 0


Последний раз редактировалось: bober100 (2021-10-02 17:27), всего редактировалось 1 раз

28-11-2019 20:33  

Отключить всю рекламу на сайте

23-09-2021 13:47 Шестнадцать + Скачать торрент  

мерзостьpb.wtf



    Дорогой пользователь! Огромная просьба, поблагодарите релизера, оцените раздачу и оставьте свои комментарий, если Вы скачали Шестнадцать + через торрент бесплатно!
    Комментировать посты могут только пользователи прошедшие не сложную регистрацию
    Показать сообщения:    

    Шестнадцать + через торрент
    Скачать бесплатно Шестнадцать +
    Шестнадцать + скачать торрент
    Шестнадцать + смотреть онлайн
    Cкачать фильм Шестнадцать + бесплатно
    Шестнадцать + скачать торрент в хорошем качестве
    Шестнадцать + смотреть онлайн бесплатно в хорошем качестве


    Вы не можете начинать темы
    Вы не можете отвечать на сообщения
    Вы не можете редактировать свои сообщения
    Вы не можете удалять свои сообщения
    Вы не можете голосовать в опросах
    Вы не можете прикреплять файлы к сообщениям
    Вы можете скачивать файлы