Anonymous, добрый вечер, присоединяйтесь к нам в Telegram!, здесь всегда актуальный адрес сайта, оперативная поддержка и многое другое!

>

5.6

iTunes

7.4

MVO

5.7

MVO

1

7.7

1 сезон

6.8

iTunes

7.3

1 сезон

13

6.7

1 сезон

8.3

RePack

30

ULTIMATE

pack

9.9

Лицензия

ВАЖНО

ИГРА 18+

pack

7.3

RePack

MK11

7.7

RePack

jed

7.8

RePack

fifa19

8.5

RePack

RDR2

RePack

NEED FOR SPEED™ PAYBACK

4 сезон

9 сезон

Бесстыжие 9 сезон

Все сериалы

все сериалы на PB.wtf

RePack

FAR CRY 5

Anonymous, добрый вечер, мы катастрофически не успеваем собрать деньги на оплату серверов, помогите нам пожалуйста 5,10,15р., для нас важна любая помощь . В качестве благодарности мы отключим Вам всю рекламу на сайте (укажите свой ник в строку Ваше имя)!

×
  
Magnet ссылка

#Яжотец / Сезон: 1 / Серии: 1-4 из 21 (Рустам Мосафир, Константин Смирнов, Константин Колесов) [2021, Комедия, WEBRip] pb.wtf

#Яжотец через торрент pb.wtf

Раздают: 5 [ 149 KB/s ]
Размер: 1.17 GB | Добавлен: 23 д. назад | Торрент скачан:46 раз
Смотреть онлайн #Яжотец | Скачать    Ребята, помогите собрать деньги на оплату серверов!!!

21-09-2021 04:43 #Яжотец Скачать торрент  

#Яжотец
Год выпуска: 2021
Страна: Россия
Студия: Comedy Club Production
Жанр: Комедия
Продолжительность: ~ 00:25:00
Субтитры: отсутствуют

Режиссер: Рустам Мосафир, Константин Смирнов, Константин Колесов



В ролях: Гоша Куценко, Алексей Родионов (IV), Екатерина Вуличенко, Сергей Масленников (II), Александр Обласов, Ольга Руднева, Григорий Дудник, Антон Лунин, Антон Никушин, Игорь Ким, Фанис Шайдуллин, Мирон Еремеев, Вадим Першин, Иван Рудометкин, Денис Сладков, Арсений Сидоров

Описание: Михаилу 44 года, в жизни он особо не преуспел, живет в квартире жены, которая и тащит всю семью. Единственное, что у него есть — это видеоблог, где они со своим сыном Степкой занимаются распаковками и обзорами игрушек. Во время очередной записи Михаил узнает, что у его жены есть другой. Михаил разводится, становится воскресным папой, но решает продолжать их с сыном блог. Только теперь он выходит в обучающе-воспитательном формате, Михаил передает Степе свой жизненный опыт и мудрость. А так как ни опыта, ни мудрости у него особо нет, все его попытки заканчиваются каким-нибудь происшествием.

Качество: WEBRip
Формат: AVI

Видео: XviD, 720x400, ~ 1750 Кбит/с, 0.243 bit/pixel, 25 Кадр/с
Аудио: 48.0 kHz, AC3 Dolby Digital, 2/0 (L,R) ch, ~ 192 kbps
скриншот  скриншот  скриншот  скриншот  

Общее
Полное имя : D:\Yazhotets.2021.WEB-DLRip.25Kuzmich\Yazhotets.e01.WEB-DLRip.25Kuzmich.avi
Формат : AVI
Формат/Информация : Audio Video Interleave
Размер файла : 300 Мбайт
Продолжительность : 21 м. 28 с.
Общий поток : 1 955 Кбит/сек
Программа кодирования : VirtualDubMod 1.5.10.3 | www.virtualdub-fr.org || (build 2550/release)
Библиотека кодирования : VirtualDubMod build 2550/release

Видео
Идентификатор : 0
Формат : MPEG-4 Visual
Профиль формата : Advanced Simple@L5
Настройки формата : BVOP1
Параметр BVOP формата : 1
Параметр QPel формата : Нет
Параметр GMC формата : Без точки перехода
Параметр матрицы формата : Default (MPEG)
Идентификатор кодека : XVID
Идентификатор кодека/Подсказка : XviD
Продолжительность : 21 м. 28 с.
Битрейт : 1 753 Кбит/сек
Ширина : 720 пикселей
Высота : 400 пикселей
Соотношение сторон : 16:9
Частота кадров : 25,000 кадров/сек
Цветовое пространство : YUV
Субдискретизация насыщенности : 4:2:0
Битовая глубина : 8 бит
Тип развёртки : Прогрессивная
Метод сжатия : С потерями
Бит/(Пиксели*Кадры) : 0.243
Размер потока : 269 Мбайт (90%)
Библиотека кодирования : XviD 73

Аудио
Идентификатор : 1
Формат : AC-3
Формат/Информация : Audio Coding 3
Коммерческое название : Dolby Digital
Идентификатор кодека : 2000
Продолжительность : 21 м. 28 с.
Вид битрейта : Постоянный
Битрейт : 192 Кбит/сек
Каналы : 2 канала
Channel layout : L R
Частота : 48,0 КГц
Частота кадров : 31,250 кадров/сек (1536 SPF)
Метод сжатия : С потерями
Размер потока : 29,5 Мбайт (10%)
Выравнивание : Разделение по промежуткам
Продолжительность промежутка : 40 мс. (1,00 видеокадр)
Время предзагрузки промежутка : 500 мс.
Service kind : Complete Main

Внимание! Раздача ведётся путём добавления новых серий; при каждом добавлении создаётся новый торрент.
Чтобы начать докачку новой серии, пользователям необходимо сделать следующее:
1. Остановить скачивание;
2. Удалить старый торрент у себя из клиента (старые серии удалять не надо);
3. Скачать новый торрент и запустить его у себя в клиенте вместо старого, при этом указать клиенту путь в старую папку куда и должно происходить скачивание новых серий. Ваш клиент при этом должен произвести хеширование (проверку) старой папки и будет докачивать только те серии, которых у вас ещё нет. Старые серии при этом не удаляются, а продолжают раздаваться! Eсли вы уже удалили старые серии, то предотвратить повторную закачку старых серий можно, отжав галочку в соответствующих местах при запуске нового торрента.

pb.wtf



Скачать #Яжотец через торрент https://d.radikal.ru/d29/2109/9c/82028e00f216.jpg Скачать, смотреть онлайн #Яжотец бесплантно в хорошем качестве Описание: Михаилу 44 года, в жизни он особо не преуспел, живет в квартире жены, которая и тащит всю семью. Единственное, что у него есть — ... 10 10 6
Торрент: Зарегистрирован [2021-09-22 03:59] · скачан: 46 раз
Статус: √ проверено
Размер: 1.17 GB
Как cкачать? Как скачать #Яжотец через торрент | UTorrent

28-11-2019 20:33  

Отключить всю рекламу на сайте

22-09-2021 06:48 #Яжотец Скачать торрент  

ммммм хуитаpb.wtf



    Дорогой пользователь! Огромная просьба, поблагодарите релизера, оцените раздачу и оставьте свои комментарий, если Вы скачали #Яжотец через торрент бесплатно!
    Комментировать посты могут только пользователи прошедшие не сложную регистрацию
    Показать сообщения:    

    #Яжотец через торрент
    Скачать бесплатно #Яжотец
    #Яжотец скачать торрент
    #Яжотец смотреть онлайн
    Cкачать фильм #Яжотец бесплатно
    #Яжотец скачать торрент в хорошем качестве
    #Яжотец смотреть онлайн бесплатно в хорошем качестве


    Вы не можете начинать темы
    Вы не можете отвечать на сообщения
    Вы не можете редактировать свои сообщения
    Вы не можете удалять свои сообщения
    Вы не можете голосовать в опросах
    Вы не можете прикреплять файлы к сообщениям
    Вы можете скачивать файлы