Всегда рабочее зеркало без VPN и Proxy просто перед .vidak.icu напиши любое слово или цифру, Пример http://cjsv.vidak.icu

MVO

Лицензия

1 сезон

1

1 сезон

iTunes

1 сезон

13

1 сезон

Deluxe

pack

Рекомендуем

Пиратка

30

ВАЖНО

RePack

MK11

RePack

jed

RePack

fifa19

RePack

RDR2

RePack

NEED FOR SPEED™ PAYBACK

Кинопоиск HD

6 сезон

 Острые козырьки 6 сезон

Все сериалы

все сериалы на PB.wtf

RePack

FAR CRY 5
  
Magnet ссылка

Дюна / Dune (Дэвид Линч) [1984 г., фантастика, боевик, приключения, BDRip-AVC, 60 FPS, MVO] pb.wtf

Дюна через торрент pb.wtf

Размер: 3.39 GB | Добавлен: 9 мес. назад | Торрент скачан:127 раз
Смотреть онлайн Дюна | Скачать    Ребята, помогите собрать деньги на оплату серверов!!!

21-09-2021 09:04 Дюна Скачать торрент  

Дюна / Dune
Год выпуска: 1984
Страна: США, Мексика
Жанр: фантастика, боевик, приключения
Продолжительность: 02:16:13
Перевод: Профессиональный (многоголосый)
Субтитры: русские, английские

Режиссер: Дэвид Линч

Бюджет: $40 000 000
Премьера в мире: 3 декабря 1984

rating

В ролях: Кайл МакЛахлан, Юрген Прохнов, Франческа Эннис, Патрик Стюарт, Ричард Джордан, Фредди Джонс, Дин Стокуэлл, Кеннет МакМиллан, Стинг, Леонардо Чимино

Описание: Планета Арракис, также известная под названием Дюна, год 10991. Это арена борьбы между злом и благородством, мир тончайших и опаснейших интриг. Гигантские песчаные черви длиной в целую милю сторожат бесценное сокровище — меланжевую пряность, позволяющую путешествовать сквозь Пространство и Время. Тот, кто контролирует пряность, контролирует Вселенную. Народ Дюны ожидает пришествия Мессии, который поведет их на священную войну против династии злобных Харконненов. И Мессия является. Им становится юный Пол Атрейдес, сын герцога Лито, предательски убитого Харконненами с одобрения Императора. Полу предстоит великая миссия, которая навсегда изменит судьбу всей галактической империи…

Качество: BDRip-AVC 60 FPS
Формат: MKV
Видео кодек: H.264
Аудио кодек: AC3
Видео: 1024x432 (2,40:1), 3 550 kbps, 59,940 fps, 0.117 bpp
Аудио#1: AC-3 / 48 kHz / 448 kbps / 6 ch / MVO (R5)

Общее
Уникальный идентификатор : 192393762163742157214301760128187721906 (0x90BDB0D611E1C1BB477836E933B968B2)
Полное имя : Z:\Раздача\Дюна.1984.mkv
Формат : Matroska
Версия формата : Version 4
Размер файла : 3,39 Гбайт
Продолжительность : 2 ч. 16 м.
Общий поток : 3 550 Кбит/сек
Название фильма : Дюна.1984.mkv
Дата кодирования : UTC 2020-09-13 11:01:41
Программа кодирования : mkvmerge v48.0.0 ('Fortress Around Your Heart') 64-bit
Библиотека кодирования : libebml v1.4.0 + libmatroska v1.6.0

Видео
Идентификатор : 1
Формат : AVC
Формат/Информация : Advanced Video Codec
Профиль формата : High@L4.1
Настройки формата : CABAC / 8 Ref Frames
Параметр CABAC формата : Да
Параметр RefFrames формата : 8 кадров
Идентификатор кодека : V_MPEG4/ISO/AVC
Продолжительность : 2 ч. 16 м.
Битрейт : 3 550 Кбит/сек
Ширина : 1 024 пикселя
Высота : 432 пикселя
Соотношение сторон : 2,40:1
Режим частоты кадров : Постоянный
Частота кадров : 59,940 кадров/сек
Цветовое пространство : YUV
Субдискретизация насыщенности : 4:2:0
Битовая глубина : 8 бит
Тип развёртки : Прогрессивная
Бит/(Пиксели*Кадры) : 0.117
Размер потока : 2,96 Гбайт (87%)
Библиотека кодирования : x264 core 146 r2538 121396c
Настройки программы : cabac=1 / ref=8 / deblock=1:0:0 / analyse=0x3:0x113 / me=umh / subme=9 / psy=1 / psy_rd=1.00:0.10 / mixed_ref=1 / me_range=32 / chroma_me=1 / trellis=2 / 8x8dct=1 / cqm=0 / deadzone=21,11 / fast_pskip=0 / chroma_qp_offset=-3 / threads=6 / lookahead_threads=1 / sliced_threads=0 / nr=0 / decimate=1 / interlaced=0 / bluray_compat=0 / constrained_intra=0 / bframes=16 / b_pyramid=2 / b_adapt=2 / b_bias=0 / direct=3 / weightb=1 / open_gop=0 / weightp=2 / keyint=250 / keyint_min=25 / scenecut=40 / intra_refresh=0 / rc_lookahead=40 / rc=2pass / mbtree=0 / bitrate=3100 / ratetol=1.0 / qcomp=0.60 / qpmin=0 / qpmax=69 / qpstep=4 / cplxblur=20.0 / qblur=0.5 / vbv_maxrate=14000 / vbv_bufsize=14000 / nal_hrd=none / filler=0 / ip_ratio=1.40 / pb_ratio=1.30 / aq=1:1.00
Язык : English
Default : Да
Forced : Нет

Аудио
Идентификатор : 2
Формат : AC-3
Формат/Информация : Audio Coding 3
Коммерческое название : Dolby Digital
Идентификатор кодека : A_AC3
Продолжительность : 2 ч. 16 м.
Вид битрейта : Постоянный
Битрейт : 448 Кбит/сек
Каналы : 6 каналов
Channel layout : L R C LFE Ls Rs
Частота : 48,0 КГц
Частота кадров : 31,250 кадров/сек (1536 SPF)
Метод сжатия : С потерями
Размер потока : 438 Мбайт (13%)
Заголовок : Профессиональный многоголосый (R5)
Язык : Russian
Service kind : Complete Main
Default : Да
Forced : Нет

Текст #1
Идентификатор : 3
Формат : UTF-8
Идентификатор кодека : S_TEXT/UTF8
Идентификатор кодека/Информация : UTF-8 Plain Text
Продолжительность : 2 ч. 12 м.
Битрейт : 64 бит/сек
Count of elements : 1151
Размер потока : 62,0 Кбайт (0%)
Язык : Russian
Default : Нет
Forced : Нет

Текст #2
Идентификатор : 4
Формат : UTF-8
Идентификатор кодека : S_TEXT/UTF8
Идентификатор кодека/Информация : UTF-8 Plain Text
Продолжительность : 2 ч. 12 м.
Битрейт : 35 бит/сек
Count of elements : 1273
Размер потока : 34,4 Кбайт (0%)
Язык : English
Default : Нет
Forced : Нет

Меню
00:00:00.000 : en:00:00:00.000
00:05:38.505 : en:00:05:38.505
00:10:36.302 : en:00:10:36.302
00:30:31.705 : en:00:30:31.705
00:49:55.409 : en:00:49:55.409
01:05:07.278 : en:01:05:07.278
01:25:45.307 : en:01:25:45.307
01:37:31.971 : en:01:37:31.971
01:41:20.741 : en:01:41:20.741
01:45:08.511 : en:01:45:08.511
01:49:46.246 : en:01:49:46.246
01:56:56.551 : en:01:56:56.551
02:02:19.165 : en:02:02:19.165
02:05:37.530 : en:02:05:37.530
02:06:50.478 : en:02:06:50.478
02:10:51.385 : en:02:10:51.385

pb.wtf



Скачать Дюна через торрент https://pic1.kartinco.top/new/img/2021-09/21/1lw1l479x6howf0ejzbmt7wdg.jpg Скачать, смотреть онлайн Дюна бесплантно в хорошем качестве Описание: Планета Арракис, также известная под названием Дюна, год 1099 Это арена борьбы между злом и благородством, мир тончайших и ... 10 10 8
Торрент: Зарегистрирован [2021-09-21 09:04] · скачан: 127 раз
Статус: √ проверено
Размер: 3.39 GB
Как cкачать? Как скачать Дюна через торрент | UTorrent

% Раздел Тема Автор DL S | L
3D Фильмы [ 9.52 GB ] Дюна в 3D / Dune: Part One in 3D [2021 BDRip 1080p ] Анаглиф от R.G. HD-Films slaventi-69 Скачать
1 | 0
3D Фильмы [ 10.92 GB ] Дюна 3Д / Dune: Part One / Dune 3D [2021 BDRip 1080p ] DUB [Пифагор / Кинопоиск HD] bober100 Скачать
2 | 0
3D Фильмы [ 21.37 GB ] Дюна в 3Д / Dune: Part One 3D [2021 BDRip 1080p] OverUnder / Вертикальная стереопара serega768 Скачать
1 | 0
Ultra HD (UHD: 2K, 4K, 8K) — видео сверхвысокой чёткости [ 30.16 GB ] Дюна / Dune: Part One / Dune [2021 UHD BDRip 2160p] DUB [Пифагор / Кинопоиск HD] bober100 Скачать
1 | 0
Ultra HD (UHD: 2K, 4K, 8K) — видео сверхвысокой чёткости [ 20.74 GB ] Дюна / Dune: Part One / Dune [2021 WEB-DL-HEVC 2160p] +MVO [HDRezka Studio] bober100 Скачать
7 | 0
Фильмы 2021 (Звук TS, Cam, VO, DVO) [ 2.66 GB ] Дюна / Dune [2021 BDRip-AVC] DUB [Пифагор ] от ExKinoRay Lithuania Скачать
2 | 0
Фильмы [HD 720p, 1080p] (Хороший звук DUB, MVO) [ 8.41 GB ] Дюна / Dune: Part One / Dune [2021 BDRip 720p] DUB [Пифагор / Кинопоиск HD] bober100 Скачать
5 | 0


Последний раз редактировалось: TimeCop (2021-09-28 12:32), всего редактировалось 1 раз

28-11-2019 20:33  

Отключить всю рекламу на сайте

21-09-2021 12:37 Дюна Скачать торрент  

слабый фильмpb.wtf



02-10-2021 14:07 Дюна Скачать торрент  

CTEHbKA писал(а):

слабый фильм

Учитывая, что этот фильм старше многих сидящих здесь, то для того времени он шикарен!pb.wtf



18-10-2021 17:42 Дюна Скачать торрент  

и вышел когда фанаты пищали от радостиpb.wtf



19-12-2021 04:43 Дюна Скачать торрент  

Раздача будет остановлена 31 декабря. Если нужно будет востановить раздачу, пишит сюда. Заходить буду один раз в неделю. (8)pb.wtf



    Дорогой пользователь! Огромная просьба, поблагодарите релизера, оцените раздачу и оставьте свои комментарий, если Вы скачали Дюна через торрент бесплатно!
    Комментировать посты могут только пользователи прошедшие не сложную регистрацию
    Показать сообщения:    

    Дюна через торрент
    Скачать бесплатно Дюна
    Дюна скачать торрент
    Дюна смотреть онлайн
    Cкачать фильм Дюна бесплатно
    Дюна скачать торрент в хорошем качестве
    Дюна смотреть онлайн бесплатно в хорошем качестве


    Вы не можете начинать темы
    Вы не можете отвечать на сообщения
    Вы не можете редактировать свои сообщения
    Вы не можете удалять свои сообщения
    Вы не можете голосовать в опросах
    Вы не можете прикреплять файлы к сообщениям
    Вы можете скачивать файлы