Anonymous, доброй ночи, присоединяйтесь к нам в Telegram!, здесь всегда актуальный адрес сайта, оперативная поддержка и многое другое!

>

5.6

iTunes

7.4

iTunes

7.9

MVO

1

7.7

1 сезон

6.8

iTunes

7.3

1 сезон

13

6.7

1 сезон

8.3

RePack

30

PREMIUM

pack

9.9

Лицензия

ВАЖНО

ИГРА 18+

pack

7.3

RePack

MK11

7.7

RePack

jed

7.8

RePack

fifa19

8.5

RePack

RDR2

RePack

NEED FOR SPEED™ PAYBACK

4 сезон

9 сезон

Бесстыжие 9 сезон

Все сериалы

все сериалы на PB.wtf

RePack

FAR CRY 5

Anonymous, доброй ночи, мы катастрофически не успеваем собрать деньги на оплату серверов, помогите нам пожалуйста 5,10,15р., для нас важна любая помощь . В качестве благодарности мы отключим Вам всю рекламу на сайте (укажите свой ник в строку Ваше имя)!

×
  
Magnet ссылка

Контакт / Сезон: 1 / Серии: 1-9 из 9 (Евгений Стычкин, Нурбек Эген) [2021, Драма, WEBRip-AVC, (Версия 18+)] pb.wtf

Контакт через торрент pb.wtf

Раздают: 11 [ 281 KB/s ] Качают: 7 [ 0 KB/s ]
Размер: 5.58 GB | Добавлен: 13 д. назад | Торрент скачан:102 раза
Смотреть онлайн Контакт | Скачать    Ребята, помогите собрать деньги на оплату серверов!!!

21-09-2021 11:01 Контакт Скачать торрент  

Контакт
Год выпуска: 2021
Страна: Россия
Студия: Good Story Media, «Среда»
Жанр: Драма
Продолжительность: ~ 00:54:00 серия
Перевод: Не требуется
Субтитры: отсутствуют
Версия 18+.

Режиссер: Евгений Стычкин, Нурбек Эген



В ролях: Павел Майков, Ирина Паутова, Равшана Куркова, Алексей Лукин, Дмитрий Мальков, Фёдор Федосеев, Карина Александрова (II), Вильма Кутавичюте, Алексей Агранович, Роман Маякин, Сергей Гилёв, Влада Лукина, Максим Виторган, Юрий Кузнецов

Описание: Глеб Барнашов — крутой опер, но разжалован в инспекторы по делам несовершеннолетних. К тому же его бросила жена, и он в одиночку воспитывает дочь Юлю, которая его ненавидит и винит в разрыве с матерью. Барнашов — мужчина с принципами, но ему придется ими поступиться, чтобы наладить контакт с дочерью. Для этого он регистрируется в соцсети под видом парня-подростка.

Качество: WEBRip-AVC
Формат: MKV

Видео: MPEG-4 AVC, ~ 1600 Кбит/с, 1024x576, 25 кадр/с
Аудио: 48.0 kHz, AC3 Dolby Digital, 2/0 (L,R) ch, ~ 192 kbps
скриншот  скриншот  скриншот  скриншот  скриншот  

General
Unique ID : 212989097596094914846570318028349583702 (0xA03C35454F4E62C9A5D8C113227F3156)
Complete name : F:\Контакт.(2021).WEBRip.(AVC).Files-x\01.Kontakt.(2021).WEBRip.(AVC).by.Серый1779.Files-x.mkv
Format : Matroska
Format version : Version 2
File size : 698 MiB
Duration : 54 min 26 s
Overall bit rate : 1 793 kb/s
Encoded date : UTC 2021-09-09 01:33:10
Writing application : mkvmerge v7.8.0 ('River Man') 32bit built on Apr 3 2015 12:11:22
Writing library : libebml v1.3.1 + libmatroska v1.4.2

Video
ID : 1
Format : AVC
Format/Info : Advanced Video Codec
Format profile : High@L4.1
Format settings : CABAC / 9 Ref Frames
Format settings, CABAC : Yes
Format settings, RefFrames : 9 frames
Codec ID : V_MPEG4/ISO/AVC
Duration : 54 min 26 s
Bit rate : 1 600 kb/s
Width : 1 024 pixels
Height : 576 pixels
Display aspect ratio : 16:9
Frame rate mode : Constant
Frame rate : 25.000 FPS
Color space : YUV
Chroma subsampling : 4:2:0
Bit depth : 8 bits
Scan type : Progressive
Bits/(Pixel*Frame) : 0.109
Stream size : 610 MiB (87%)
Writing library : x264 core 146 r2538 121396c
Encoding settings : cabac=1 / ref=9 / deblock=1:-2:-1 / analyse=0x3:0x133 / me=umh / subme=9 / psy=1 / psy_rd=1.00:0.15 / mixed_ref=1 / me_range=32 / chroma_me=1 / trellis=2 / 8x8dct=1 / cqm=0 / deadzone=21,11 / fast_pskip=0 / chroma_qp_offset=-3 / threads=18 / lookahead_threads=3 / sliced_threads=0 / nr=0 / decimate=1 / interlaced=0 / bluray_compat=0 / constrained_intra=0 / bframes=9 / b_pyramid=2 / b_adapt=2 / b_bias=0 / direct=1 / weightb=1 / open_gop=0 / weightp=2 / keyint=250 / keyint_min=25 / scenecut=40 / intra_refresh=0 / rc=2pass / mbtree=0 / bitrate=1600 / ratetol=1.0 / qcomp=0.60 / qpmin=0 / qpmax=69 / qpstep=4 / cplxblur=20.0 / qblur=0.5 / ip_ratio=1.40 / pb_ratio=1.30 / aq=2:1.00
Default : Yes
Forced : No
Color range : Limited
Color primaries : BT.709
Transfer characteristics : BT.709
Matrix coefficients : BT.709

Audio
ID : 2
Format : AC-3
Format/Info : Audio Coding 3
Format settings, Endianness : Big
Codec ID : A_AC3
Duration : 54 min 26 s
Bit rate mode : Constant
Bit rate : 192 kb/s
Channel(s) : 2 channels
Channel positions : Front: L R
Sampling rate : 48.0 kHz
Frame rate : 31.250 FPS (1536 SPF)
Bit depth : 16 bits
Compression mode : Lossy
Stream size : 74.8 MiB (11%)
Service kind : Complete Main
Default : Yes
Forced : No

Внимание! Раздача ведётся путём добавления новых серий; при каждом добавлении создаётся новый торрент.
Чтобы начать докачку новой серии, пользователям необходимо сделать следующее:
1. Остановить скачивание;
2. Удалить старый торрент у себя из клиента (старые серии удалять не надо);
3. Скачать новый торрент и запустить его у себя в клиенте вместо старого, при этом указать клиенту путь в старую папку куда и должно происходить скачивание новых серий. Ваш клиент при этом должен произвести хеширование (проверку) старой папки и будет докачивать только те серии, которых у вас ещё нет. Старые серии при этом не удаляются, а продолжают раздаваться! Eсли вы уже удалили старые серии, то предотвратить повторную закачку старых серий можно, отжав галочку в соответствующих местах при запуске нового торрента.

pb.wtf



Скачать Контакт через торрент https://i115.fastpic.org/big/2021/0909/cc/6f044d100d66ffcf123653476bd867cc.jpg Скачать, смотреть онлайн Контакт бесплантно в хорошем качестве Описание: Глеб Барнашов — крутой опер, но разжалован в инспекторы по делам несовершеннолетних. К тому же его бросила жена, и он в одиночку ... 8.9 10 8
Торрент: Зарегистрирован [2021-10-08 05:22] · скачан: 102 раз
Статус: √ проверено
Размер: 5.58 GB
Как cкачать? Как скачать Контакт через торрент | UTorrent

% Раздел Тема Автор DL S | L
TNT serials [ 9.8 GB ] Контакт / Сезон: 1 / Серии: 1-9 из 9 [2021 WEBRip 720p ] bober100 Скачать
3 | 5
TNT serials [ 5.99 GB ] Контакт / Сезон: 1 / Серии: 1-9 из 9 [2021 WEBRip ] bober100 Скачать
18 | 8
TNT serials [ 14.41 GB ] Контакт / Сезон: 1 / Серии: 1-9 из 9 [2021 WEBRip 1080p ] bober100 Скачать
13 | 1


Последний раз редактировалось: bober100 (2021-10-08 05:22), всего редактировалось 2 раз(а)

28-11-2019 20:33  

Отключить всю рекламу на сайте

21-09-2021 12:22 Контакт Скачать торрент  

5 скрин это жэстьpb.wtf



21-09-2021 14:05 Контакт Скачать торрент  

damika777 писал(а):

5 скрин это жэсть

почему?pb.wtf



    Дорогой пользователь! Огромная просьба, поблагодарите релизера, оцените раздачу и оставьте свои комментарий, если Вы скачали Контакт через торрент бесплатно!
    Комментировать посты могут только пользователи прошедшие не сложную регистрацию
    Показать сообщения:    

    Контакт через торрент
    Скачать бесплатно Контакт
    Контакт скачать торрент
    Контакт смотреть онлайн
    Cкачать фильм Контакт бесплатно
    Контакт скачать торрент в хорошем качестве
    Контакт смотреть онлайн бесплатно в хорошем качестве


    Вы не можете начинать темы
    Вы не можете отвечать на сообщения
    Вы не можете редактировать свои сообщения
    Вы не можете удалять свои сообщения
    Вы не можете голосовать в опросах
    Вы не можете прикреплять файлы к сообщениям
    Вы можете скачивать файлы