Присоединяйтесь к нам в Telegram!, здесь всегда актуальный адрес сайта, оперативная поддержка и многое другое!!

>

5.9

iTunes

7.4

iTunes

9.4

1 сезон

1

7.4

2 сезон

7.2

iTunes

7.3

1 сезон

13

6.1

iTunes

8.3

GOG

30

ULTIMATE

pack

9.9

Лицензия

ВАЖНО

ИГРА 18+

pack

7.3

RePack

MK11

7.7

RePack

jed

7.8

RePack

fifa19

8.5

RePack

RDR2

RePack

NEED FOR SPEED™ PAYBACK

5 сезон

9 сезон

Бесстыжие 9 сезон

Все сериалы

все сериалы на PB.wtf

RePack

FAR CRY 5

Anonymous, доброе утро, мы катастрофически не успеваем собрать деньги на оплату серверов, помогите нам пожалуйста 5,10,15р., для нас важна любая помощь . В качестве благодарности мы отключим Вам всю рекламу на сайте (укажите свой ник в строку Ваше имя)!

×
  
Magnet ссылка

Посторонние / Intrusion (Адам Салки) [2021, Триллер, WEB-DLRip-AVC] DUB [Невафильм / Netflix] pb.wtf

Посторонние через торрент pb.wtf

Раздают: 2 [ 0 KB/s ]
Размер: 1.77 GB | Добавлен: 2 мес. 9 д. назад | Торрент скачан:113 раз
Смотреть онлайн Посторонние | Скачать    Ребята, помогите собрать деньги на оплату серверов!!!

22-09-2021 11:35 Посторонние Скачать торрент  

Посторонние | Intrusion
Год выпуска: 2021
Страна: США
Студия: Creator Media Entertainment, EMJAG Productions
Жанр: Триллер
Продолжительность: 01:33:56
Перевод: Дублированный | Невафильм по заказу Netflix
Субтитры: Русские (Forced, full), украинские (Full), английские

Режиссер: Адам Салки

rating

В ролях: Логан Маршалл-Грин, Фрида Пинто, Роберт Джон Бёрк, Сара Минник, Марк Сивертсен, Хэйес Харгров, Бонита Кинг, Иветт Фазио-Делани

Описание: Семейная пара переезжает в новый город, а вскоре после переезда в их дом проникает злоумышленник. После этого у героини развивается посттравматический синдром, и она начинает подозревать всех соседей и окружающих в злых намерениях.

Качество: WEB-DLRip-AVC
Формат: MKV

Видео: 1024x428 at 24.000 fps, x264@L4.1, ~1801 kbps
Аудио #01: 48 kHz, AC3, 5.1, 448 Kbps | Дублированный | Netflix | RUS |
Аудио #02: 48 kHz, AC3, 5.1, 448 Kbps | Оригинал | ENG |
скриншот  скриншот  скриншот  скриншот  скриншот  

x264 [info]: frame I:1299 Avg QP:13.16 size: 57303
x264 [info]: frame P:24159 Avg QP:14.47 size: 21556
x264 [info]: frame B:109818 Avg QP:15.92 size: 6135

General
Unique ID : 106129176404593620475356828060189882336 (0x4FD7BC62B3C4150EEF8CF00FC08E77E0)
Complete name : I:Intrusion.(2021).WEB-DLRip-AVC.mkv
Format : Matroska
Format version : Version 4
File size : 1.77 GiB
Duration : 1 h 33 min
Overall bit rate : 2 700 kb/s
Encoded date : UTC 2021-09-22 09:41:38
Writing application : mkvmerge v61.0.0 ('So') 64-bit
Writing library : libebml v1.4.2 + libmatroska v1.6.4
Cover : Yes
Attachments : Cover.jpg / Cover 2.jpg

Video
ID : 1
Format : AVC
Format/Info : Advanced Video Codec
Format profile : High@L4.1
Format settings : CABAC / 12 Ref Frames
Format settings, CABAC : Yes
Format settings, Reference : 12 frames
Codec ID : V_MPEG4/ISO/AVC
Duration : 1 h 33 min
Bit rate : 1 801 kb/s
Width : 1 024 pixels
Height : 428 pixels
Display aspect ratio : 2.40:1
Frame rate mode : Constant
Frame rate : 24.000 FPS
Color space : YUV
Chroma subsampling : 4:2:0
Bit depth : 8 bits
Scan type : Progressive
Bits/(Pixel*Frame) : 0.171
Stream size : 1.18 GiB (67%)
Title : -=DoMiNo=-
Writing library : x264 core 164 r3065+55M 280faca t_mod_New [(8 & 10)-bit@all X86_64]
Encoding settings : cabac=1 / ref=12 / deblock=1:-3:-2 / analyse=0x3:0x133 / me=umh / subme=10 / psy=1 / fade_compensate=0.00 / psy_rd=1.00:0.20 / mixed_ref=1 / me_range=32 / chroma_me=1 / trellis=2 / 8x8dct=1 / cqm=0 / deadzone=21,11 / fast_pskip=0 / chroma_qp_offset=-3 / threads=24 / lookahead_threads=3 / sliced_threads=0 / nr=0 / decimate=1 / interlaced=0 / bluray_compat=0 / constrained_intra=0 / fgo=0 / bframes=12 / b_pyramid=2 / b_adapt=2 / b_bias=0 / direct=1 / weightb=1 / open_gop=0 / weightp=2 / keyint=240 / keyint_min=24 / scenecut=40 / intra_refresh=0 / rc_lookahead=60 / rc=crf / mbtree=0 / crf=17.0000 / qcomp=0.60 / qpmin=0:0:0 / qpmax=69:69:69 / qpstep=4 / vbv_maxrate=50000 / vbv_bufsize=62500 / crf_max=0.0 / nal_hrd=none / filler=0 / ip_ratio=1.30 / pb_ratio=1.20 / aq=2:1.00 / aq-sensitivity=10.00 / aq-factor=1.00:1.00:1.00 / aq2=0 / aq3=0
Language : English
Default : Yes
Forced : No

Audio #1
ID : 2
Format : AC-3
Format/Info : Audio Coding 3
Commercial name : Dolby Digital
Codec ID : A_AC3
Duration : 1 h 33 min
Bit rate mode : Constant
Bit rate : 448 kb/s
Channel(s) : 6 channels
Channel layout : L R C LFE Ls Rs
Sampling rate : 48.0 kHz
Frame rate : 31.250 FPS (1536 SPF)
Compression mode : Lossy
Stream size : 301 MiB (17%)
Title : DUB
Language : Russian
Service kind : Complete Main
Default : Yes
Forced : No

Audio #2
ID : 3
Format : AC-3
Format/Info : Audio Coding 3
Commercial name : Dolby Digital
Codec ID : A_AC3
Duration : 1 h 33 min
Bit rate mode : Constant
Bit rate : 448 kb/s
Channel(s) : 6 channels
Channel layout : L R C LFE Ls Rs
Sampling rate : 48.0 kHz
Frame rate : 31.250 FPS (1536 SPF)
Compression mode : Lossy
Stream size : 301 MiB (17%)
Language : English
Service kind : Complete Main
Default : No
Forced : No

Text #1
ID : 4
Format : UTF-8
Codec ID : S_TEXT/UTF8
Codec ID/Info : UTF-8 Plain Text
Duration : 1 h 32 min
Bit rate : 3 b/s
Count of elements : 63
Stream size : 2.42 KiB (0%)
Title : Forced
Language : Russian
Default : No
Forced : Yes

Text #2
ID : 5
Format : UTF-8
Codec ID : S_TEXT/UTF8
Codec ID/Info : UTF-8 Plain Text
Duration : 1 h 32 min
Bit rate : 46 b/s
Count of elements : 742
Stream size : 31.8 KiB (0%)
Title : Full
Language : Russian
Default : No
Forced : No

Text #3
ID : 6
Format : UTF-8
Codec ID : S_TEXT/UTF8
Codec ID/Info : UTF-8 Plain Text
Duration : 1 h 32 min
Bit rate : 47 b/s
Count of elements : 729
Stream size : 31.9 KiB (0%)
Title : Full
Language : Ukrainian
Default : No
Forced : No

Text #4
ID : 7
Format : UTF-8
Codec ID : S_TEXT/UTF8
Codec ID/Info : UTF-8 Plain Text
Duration : 1 h 23 min
Bit rate : 37 b/s
Count of elements : 753
Stream size : 22.9 KiB (0%)
Title : Full
Language : English
Default : No
Forced : No

Text #5
ID : 8
Format : UTF-8
Codec ID : S_TEXT/UTF8
Codec ID/Info : UTF-8 Plain Text
Duration : 1 h 31 min
Bit rate : 46 b/s
Count of elements : 1095
Stream size : 30.9 KiB (0%)
Title : SDH
Language : English
Default : No
Forced : No

pb.wtf



Скачать Посторонние через торрент https://b.radikal.ru/b32/2109/db/38a524ea5a4f.jpg Скачать, смотреть онлайн Посторонние бесплантно в хорошем качестве Описание: Семейная пара переезжает в новый город, а вскоре после переезда в их дом проникает злоумышленник. После этого у героини ... 10 10 4
Торрент: Зарегистрирован [2021-09-22 11:35] · скачан: 113 раз
Статус: √ проверено
Размер: 1.77 GB
Как cкачать? Как скачать Посторонние через торрент | UTorrent

% Раздел Тема Автор DL S | L
Фильмы (WEB-DL 720p, 1080p) [ 4.07 GB ] Посторонние / Intrusion [2021 WEB-DL-HEVC 1080p] DUB [Невафильм / Netflix] bober100 Скачать
2 | 0
Фильмы 2021 [DVDrip, WEB-DLRip, HDrip] (DUB, MVO) [ 1.46 GB ] Посторонние / Intrusion [2021 WEB-DLRip] - [ / Netflix] Twi7ter Скачать
21 | 0
Фильмы 2021 [DVDrip, WEB-DLRip, HDrip] (DUB, MVO) [ 1.45 GB ] Посторонние / Intrusion [2021 WEB-DLRip] DUB [Невафильм / Netflix] bober100 Скачать
2 | 0
Фильмы (WEB-DL 720p, 1080p) [ 5.09 GB ] Посторонние / Intrusion [2021 WEB-DL 1080p] DUB [Невафильм / Netflix] bober100 Скачать
6 | 0

28-11-2019 20:33  

Отключить всю рекламу на сайте

    Дорогой пользователь! Огромная просьба, поблагодарите релизера, оцените раздачу и оставьте свои комментарий, если Вы скачали Посторонние через торрент бесплатно!
    Комментировать посты могут только пользователи прошедшие не сложную регистрацию
    Показать сообщения:    

    Посторонние через торрент
    Скачать бесплатно Посторонние
    Посторонние скачать торрент
    Посторонние смотреть онлайн
    Cкачать фильм Посторонние бесплатно
    Посторонние скачать торрент в хорошем качестве
    Посторонние смотреть онлайн бесплатно в хорошем качестве


    Вы не можете начинать темы
    Вы не можете отвечать на сообщения
    Вы не можете редактировать свои сообщения
    Вы не можете удалять свои сообщения
    Вы не можете голосовать в опросах
    Вы не можете прикреплять файлы к сообщениям
    Вы можете скачивать файлы