Присоединяйтесь к нам в Telegram!, здесь всегда актуальный адрес сайта, оперативная поддержка и многое другое!!

>

5.9

iTunes

7.4

iTunes

9.4

1 сезон

1

7.4

2 сезон

7.2

iTunes

7.3

1 сезон

13

6.1

iTunes

8.3

GOG

30

ULTIMATE

pack

9.9

Лицензия

ВАЖНО

ИГРА 18+

pack

7.3

RePack

MK11

7.7

RePack

jed

7.8

RePack

fifa19

8.5

RePack

RDR2

RePack

NEED FOR SPEED™ PAYBACK

5 сезон

9 сезон

Бесстыжие 9 сезон

Все сериалы

все сериалы на PB.wtf

RePack

FAR CRY 5

Anonymous, доброй ночи, мы катастрофически не успеваем собрать деньги на оплату серверов, помогите нам пожалуйста 5,10,15р., для нас важна любая помощь . В качестве благодарности мы отключим Вам всю рекламу на сайте (укажите свой ник в строку Ваше имя)!

×
  
Magnet ссылка

За гранью жизни / Out of Death (Майк Бёрнс) [2021, Триллер, криминал, HDRip-AVC] DUB [iTunes] от MediaBit pb.wtf

За гранью жизни через торрент pb.wtf

Раздают: 3 [ 0 KB/s ]
Размер: 2.05 GB | Добавлен: 2 мес. 8 д. назад | Торрент скачан:89 раз
Смотреть онлайн За гранью жизни | Скачать    Ребята, помогите собрать деньги на оплату серверов!!!

22-09-2021 17:57 За гранью жизни Скачать торрент  


За гранью жизни / Out of Death
Информация о фильме:
Название: За гранью жизни
Оригинальное название: Out of Death
Год выхода: 2021
Жанр: Триллер, криминал
Режиссер: Майк Бёрнс
В ролях: Джейми Кинг, Брюс Уиллис, Лорин Кент, Келли Грейсон, Тайлер Джон Олсон, Меган Леонард, Майкл Сироу, Кайла Эва, Оливер Тревена

Описание: Фотограф Шеннон Мэтерс невольно становится свидетелем сделки с наркотиками, во время которой полицейские убивают неизвестного. Она успевает сделать несколько снимков, но ее засекают. Шеннон удается бежать, но преступные копы идут за ней по пятам. Егерь Джек Харрис, офицер полиции в отставке, помогает ей укрыться от преследования, но можно ли доверять ему?



Страна: США
Студия: BondIt, Buffalo 8 Productions, Emmett/Furla Films, River Bay Films, SSS Entertainment, Verdi Productions
Продолжительность: 01:35:43
Перевод: Дублированный - iTunes



Информация о файле:
Кодек: AVC
Формат: MKV
Качество: HDRip-AVC
Видео: MPEG-4 AVC, 1024x428, 23.976 fps, 2232 kbps
Аудио RU: AC3, 6 ch, 48 kHz, 384 kbps
Аудио EN: AC3, 6 ch, 48 kHz, 448 kbps
Субтитры: Английские

x264 info: frame I:1052 Avg QP:14.24 size: 97103
x264 info: frame P:35921 Avg QP:18.25 size: 26610
x264 info: frame B:100730 Avg QP:21.53 size: 5214
General
Unique ID : 86669814302315177252504465342879471491 (0x4133FFC2A75E3A2B34917ECE79E39783)
Complete name : D:uTorrentРипы wolf1245Out..of..Death.2021.DUB.iTunes.HDRip-AVC.[-=wolf1245.MediaBit=-].mkv
Format : Matroska
Format version : Version 4
File size : 2.05 GiB
Duration : 1 h 35 min
Overall bit rate : 3 064 kb/s
Movie name : Out..of..Death.2021.DUB.iTunes.HDRip-AVC.[-=wolf1245.MediaBit=-]
Encoded date : UTC 2021-09-22 17:45:41
Writing application : mkvmerge v61.0.0 ('So') 64-bit
Writing library : libebml v1.4.2 + libmatroska v1.6.4
Video
ID : 1
Format : AVC
Format/Info : Advanced Video Codec
Format profile : High@L4.1
Format settings : CABAC / 14 Ref Frames
Format settings, CABAC : Yes
Format settings, Reference frames : 14 frames
Codec ID : V_MPEG4/ISO/AVC
Duration : 1 h 35 min
Bit rate : 2 232 kb/s
Width : 1 024 pixels
Height : 428 pixels
Display aspect ratio : 2.40:1
Frame rate mode : Constant
Frame rate : 23.976 (24000/1001) FPS
Color space : YUV
Chroma subsampling : 4:2:0
Bit depth : 8 bits
Scan type : Progressive
Bits/(Pixel*Frame) : 0.212
Stream size : 1.49 GiB (73%)
Title : [-=wolf1245.MediaBit=-]
Writing library : x264 core 161 r3020 d198931
Encoding settings : cabac=1 / ref=14 / deblock=1:-3:-3 / analyse=0x3:0x133 / me=umh / subme=11 / psy=1 / psy_rd=1.00:0.05 / mixed_ref=1 / me_range=48 / chroma_me=1 / trellis=2 / 8x8dct=1 / cqm=0 / deadzone=21,11 / fast_pskip=1 / chroma_qp_offset=-3 / threads=10 / lookahead_threads=2 / sliced_threads=0 / nr=0 / decimate=1 / interlaced=0 / bluray_compat=0 / constrained_intra=0 / bframes=12 / b_pyramid=2 / b_adapt=2 / b_bias=0 / direct=3 / weightb=1 / open_gop=0 / weightp=2 / keyint=240 / keyint_min=24 / scenecut=40 / intra_refresh=0 / rc_lookahead=60 / rc=2pass / mbtree=1 / bitrate=2232 / ratetol=1.0 / qcomp=0.60 / qpmin=0 / qpmax=69 / qpstep=4 / cplxblur=20.0 / qblur=0.5 / vbv_maxrate=50000 / vbv_bufsize=62500 / nal_hrd=none / filler=0 / ip_ratio=1.40 / aq=3:0.80
Language : English
Default : Yes
Forced : No
Color range : Limited
Color primaries : BT.709
Transfer characteristics : BT.709
Matrix coefficients : BT.709
Audio #1
ID : 2
Format : AC-3
Format/Info : Audio Coding 3
Commercial name : Dolby Digital
Codec ID : A_AC3
Duration : 1 h 35 min
Bit rate mode : Constant
Bit rate : 384 kb/s
Channel(s) : 6 channels
Channel layout : L R C LFE Ls Rs
Sampling rate : 48.0 kHz
Frame rate : 31.250 FPS (1536 SPF)
Compression mode : Lossy
Stream size : 263 MiB (13%)
Title : DUB | iTunes
Language : Russian
Service kind : Complete Main
Default : Yes
Forced : No
Audio #2
ID : 3
Format : AC-3
Format/Info : Audio Coding 3
Commercial name : Dolby Digital
Codec ID : A_AC3
Duration : 1 h 35 min
Bit rate mode : Constant
Bit rate : 448 kb/s
Channel(s) : 6 channels
Channel layout : L R C LFE Ls Rs
Sampling rate : 48.0 kHz
Frame rate : 31.250 FPS (1536 SPF)
Compression mode : Lossy
Stream size : 307 MiB (15%)
Title : Original
Language : English
Service kind : Complete Main
Default : No
Forced : No
Text #1
ID : 4
Format : UTF-8
Codec ID : S_TEXT/UTF8
Codec ID/Info : UTF-8 Plain Text
Duration : 1 h 34 min
Bit rate : 42 b/s
Count of elements : 1118
Stream size : 29.4 KiB (0%)
Language : English
Default : No
Forced : No
Text #2
ID : 5
Format : UTF-8
Codec ID : S_TEXT/UTF8
Codec ID/Info : UTF-8 Plain Text
Duration : 1 h 35 min
Bit rate : 52 b/s
Count of elements : 1367
Stream size : 37.0 KiB (0%)
Title : SDH
Language : English
Default : No
Forced : No
Menu
00:00:00.000 : :Chapter 01
00:07:45.799 : :Chapter 02
00:16:03.171 : :Chapter 03
00:24:28.842 : :Chapter 04
00:32:18.061 : :Chapter 05
00:40:36.142 : :Chapter 06
00:50:39.161 : :Chapter 07
00:59:27.522 : :Chapter 08
01:08:57.716 : :Chapter 09
01:17:40.990 : :Chapter 10
01:24:30.482 : :Chapter 11
01:32:58.490 : :Chapter 12
Релиз от: &
Автор релиза:
pb.wtf



Скачать За гранью жизни через торрент https://i115.fastpic.org/big/2021/0922/22/e4bf3a26b12ab3a86b58592bb6436c22.jpg Скачать, смотреть онлайн За гранью жизни бесплантно в хорошем качестве Описание: Фотограф Шеннон Мэтерс невольно становится свидетелем сделки с наркотиками, во время которой полицейские убивают неизвестного. ... 10 10 2
Торрент: Зарегистрирован [2021-09-22 17:57] · скачан: 89 раз
Статус: √ проверено
Размер: 2.05 GB
Как cкачать? Как скачать За гранью жизни через торрент | UTorrent

28-11-2019 20:33  

Отключить всю рекламу на сайте

    Дорогой пользователь! Огромная просьба, поблагодарите релизера, оцените раздачу и оставьте свои комментарий, если Вы скачали За гранью жизни через торрент бесплатно!
    Комментировать посты могут только пользователи прошедшие не сложную регистрацию
    Показать сообщения:    

    За гранью жизни через торрент
    Скачать бесплатно За гранью жизни
    За гранью жизни скачать торрент
    За гранью жизни смотреть онлайн
    Cкачать фильм За гранью жизни бесплатно
    За гранью жизни скачать торрент в хорошем качестве
    За гранью жизни смотреть онлайн бесплатно в хорошем качестве


    Вы не можете начинать темы
    Вы не можете отвечать на сообщения
    Вы не можете редактировать свои сообщения
    Вы не можете удалять свои сообщения
    Вы не можете голосовать в опросах
    Вы не можете прикреплять файлы к сообщениям
    Вы можете скачивать файлы