Всегда рабочее зеркало просто перед .vidak.icu напиши любое слово или цифру, Пример http://ec9.vidak.icu

>

7.4

iTunes

7.4

2 сезон

6.6

iTunes

1

7.4

2 сезон

7.2

iTunes

6.0

MVO

13

6.1

iTunes

8.3

Пиратка

30

ULTIMATE

pack

9.9

Лицензия

ВАЖНО

ИГРА 18+

pack

7.3

RePack

MK11

7.7

RePack

jed

7.8

RePack

fifa19

8.5

RePack

RDR2

RePack

NEED FOR SPEED™ PAYBACK

1 сезон

9 сезон

Бесстыжие 9 сезон

Все сериалы

все сериалы на PB.wtf

RePack

FAR CRY 5

Anonymous, доброй ночи, мы катастрофически не успеваем собрать деньги на оплату серверов, помогите нам пожалуйста 5,10,15р., для нас важна любая помощь . В качестве благодарности мы отключим Вам всю рекламу на сайте (укажите свой ник в строку Ваше имя)!

×
  
Magnet ссылка

Судная ночь навсегда / The Forever Purge (Эверардо Валерио Гоут) [2021, Ужасы, боевик, триллер, BDRip 720p] DUB [iTunes] +AVO [М.Яроцкий] pb.wtf

Судная ночь навсегда через торрент pb.wtf

Раздают: 1 [ 0 KB/s ]
Размер: 3.72 GB | Добавлен: 3 мес. 28 д. назад | Торрент скачан:104 раза
Смотреть онлайн Судная ночь навсегда | Скачать    Ребята, помогите собрать деньги на оплату серверов!!!

23-09-2021 03:19 Судная ночь навсегда Скачать торрент  

Судная ночь навсегда | The Forever Purge
Год выпуска: 2021
Страна: США, Мексика, Франция
Студия: Blumhouse Productions, Man in A Tree, Perfect World (Beijing) Pictures Co., Пифагор, Platinum Dunes, Universal Pictures
Жанр: Ужасы, боевик, триллер
Продолжительность: 01:43:30
Перевод:
Дублированный | iTunes
Авторский одноголосый | М.Яроцкий
Субтитры: Русские (Forced), английские

Режиссер: Эверардо Валерио Гоут

rating

В ролях: Ана де ла Регера, Теноч Уэрта, Джош Лукас, Ливэн Рамбин, Кэссиди Фриман, Алехандро Эдда, Уилл Пэттон, Уилл Бриттейн, Сэмми Ротиби, Зан Маккларнон

Описание: Этим летом все правила будут нарушены. Группа мародеров решает, что ежегодная Судная ночь не должна заканчиваться с наступлением утра, а может продолжаться бесконечно. Никто больше не будет в безопасности.

Качество: BDRip 720p
Формат: MKV

Видео: MPEG-4 AVC, 1280x694, 3861 Kbit/s, 23.976 fps
Аудио #01: 48 kHz, AC3, 5.1, 384 Kbps | Дублированный | iTunes | RUS |
Аудио #02: 48 kHz, AC3, 5.1, 448 Kbps | Авторский | М. Яроцкий | RUS |
Аудио #03: 48 kHz, AC3, 5.1, 448 Kbps | Оригинал | ENG |
скриншот  скриншот  скриншот  скриншот  скриншот  

General
Unique ID : 222661682212854693367921975687007821365 (0xA783148303F4BB5F63C47E18F921DE35)
Complete name : E:VideoThe.Forever.Purge.2021.BDRip.720p.seleZen.mkv
Format : Matroska
Format version : Version 4
File size : 3.72 GiB
Duration : 1 h 43 min
Overall bit rate : 5 144 kb/s
Movie name : The Forever Purge 2021 from seleZen
Encoded date : UTC 2021-09-22 20:34:26
Writing application : mkvmerge v59.0.0 ('Shining Star') 64-bit
Writing library : libebml v1.4.2 + libmatroska v1.6.4

Video
ID : 1
Format : AVC
Format/Info : Advanced Video Codec
Format profile : High@L4.1
Format settings : CABAC / 9 Ref Frames
Format settings, CABAC : Yes
Format settings, Reference : 9 frames
Codec ID : V_MPEG4/ISO/AVC
Duration : 1 h 43 min
Bit rate : 3 861 kb/s
Width : 1 280 pixels
Height : 694 pixels
Display aspect ratio : 1.85:1
Frame rate mode : Constant
Frame rate : 23.976 (24000/1001) FPS
Color space : YUV
Chroma subsampling : 4:2:0
Bit depth : 8 bits
Scan type : Progressive
Bits/(Pixel*Frame) : 0.181
Stream size : 2.79 GiB (75%)
Title : MTeam
Writing library : x264 core 157 r2938 2b00a84 TnP@MTeam Mod
Encoding settings : cabac=1 / ref=9 / deblock=1:-3:-3 / analyse=0x3:0x133 / me=umh / subme=10 / psy=1 / psy_rd=1.05:0.00 / mixed_ref=1 / me_range=32 / chroma_me=1 / trellis=2 / 8x8dct=1 / cqm=0 / deadzone=21,11 / fast_pskip=0 / chroma_qp_offset=-2 / threads=12 / lookahead_threads=2 / sliced_threads=0 / nr=0 / decimate=0 / interlaced=0 / bluray_compat=0 / constrained_intra=0 / bframes=8 / b_pyramid=2 / b_adapt=2 / b_bias=0 / direct=3 / weightb=1 / open_gop=0 / weightp=2 / keyint=250 / keyint_min=24 / scenecut=40 / intra_refresh=0 / rc_lookahead=250 / rc=crf / mbtree=0 / crf=16.8 / qcomp=0.60 / qpmin=0 / qpmax=69 / qpstep=4 / vbv_maxrate=62500 / vbv_bufsize=78125 / crf_max=0.0 / nal_hrd=none / filler=0 / ip_ratio=1.30 / pb_ratio=1.20 / aq=3:0.80
Language : English
Default : Yes
Forced : No
Color range : Limited
Color primaries : BT.709
Matrix coefficients : BT.709

Audio #1
ID : 2
Format : AC-3
Format/Info : Audio Coding 3
Commercial name : Dolby Digital
Codec ID : A_AC3
Duration : 1 h 43 min
Bit rate mode : Constant
Bit rate : 384 kb/s
Channel(s) : 6 channels
Channel layout : L R C LFE Ls Rs
Sampling rate : 48.0 kHz
Frame rate : 31.250 FPS (1536 SPF)
Compression mode : Lossy
Stream size : 284 MiB (7%)
Title : Dub [iTunes]
Language : Russian
Service kind : Complete Main
Default : Yes
Forced : Yes

Audio #2
ID : 3
Format : AC-3
Format/Info : Audio Coding 3
Commercial name : Dolby Digital
Codec ID : A_AC3
Duration : 1 h 43 min
Bit rate mode : Constant
Bit rate : 448 kb/s
Channel(s) : 6 channels
Channel layout : L R C LFE Ls Rs
Sampling rate : 48.0 kHz
Frame rate : 31.250 FPS (1536 SPF)
Compression mode : Lossy
Stream size : 332 MiB (9%)
Title : AVO [kyberpunk]
Language : Russian
Service kind : Complete Main
Default : No
Forced : No

Audio #3
ID : 4
Format : AC-3
Format/Info : Audio Coding 3
Commercial name : Dolby Digital
Codec ID : A_AC3
Duration : 1 h 43 min
Bit rate mode : Constant
Bit rate : 448 kb/s
Channel(s) : 6 channels
Channel layout : L R C LFE Ls Rs
Sampling rate : 48.0 kHz
Frame rate : 31.250 FPS (1536 SPF)
Compression mode : Lossy
Stream size : 332 MiB (9%)
Title : Original
Language : English
Service kind : Complete Main
Default : No
Forced : No

Text #1
ID : 5
Format : UTF-8
Codec ID : S_TEXT/UTF8
Codec ID/Info : UTF-8 Plain Text
Duration : 1 h 30 min
Bit rate : 4 b/s
Count of elements : 78
Stream size : 3.03 KiB (0%)
Title : Forced
Language : Russian
Default : Yes
Forced : Yes

Text #2
ID : 6
Format : UTF-8
Codec ID : S_TEXT/UTF8
Codec ID/Info : UTF-8 Plain Text
Duration : 1 h 30 min
Bit rate : 2 b/s
Count of elements : 78
Stream size : 1.78 KiB (0%)
Title : Forced
Language : English
Default : No
Forced : No

Text #3
ID : 7
Format : UTF-8
Codec ID : S_TEXT/UTF8
Codec ID/Info : UTF-8 Plain Text
Duration : 1 h 37 min
Bit rate : 49 b/s
Count of elements : 1334
Stream size : 35.4 KiB (0%)
Title : Full
Language : English
Default : No
Forced : No

Text #4
ID : 8
Format : UTF-8
Codec ID : S_TEXT/UTF8
Codec ID/Info : UTF-8 Plain Text
Duration : 1 h 43 min
Bit rate : 65 b/s
Count of elements : 1770
Stream size : 49.9 KiB (0%)
Title : SDH
Language : English
Default : No
Forced : No

Menu
00:00:00.000 : Chapter 01
00:05:00.133 : Chapter 02
00:11:22.765 : Chapter 03
00:15:47.738 : Chapter 04
00:20:21.262 : Chapter 05
00:26:18.452 : Chapter 06
00:29:37.776 : Chapter 07
00:34:23.979 : Chapter 08
00:36:27.602 : Chapter 09
00:42:05.273 : Chapter 10
00:47:02.653 : Chapter 11
00:52:23.849 : Chapter 12
00:56:46.361 : Chapter 13
01:00:30.585 : Chapter 14
01:05:46.317 : Chapter 15
01:12:46.779 : Chapter 16
01:18:42.217 : Chapter 17
01:24:45.455 : Chapter 18
01:29:51.886 : Chapter 19
01:35:11.956 : Chapter 20

pb.wtf



Скачать Судная ночь навсегда через торрент https://a.radikal.ru/a05/2109/fa/1ca944d8336a.jpg Скачать, смотреть онлайн Судная ночь навсегда бесплантно в хорошем качестве Описание: Этим летом все правила будут нарушены. Группа мародеров решает, что ежегодная Судная ночь не должна заканчиваться с наступлением ... 10 10 6
Торрент: Зарегистрирован [2021-09-23 03:19] · скачан: 104 раз
Статус: √ проверено
Размер: 3.72 GB
Как cкачать? Как скачать Судная ночь навсегда через торрент | UTorrent

% Раздел Тема Автор DL S | L
Фильмы 2021 [DVDrip, WEB-DLRip, HDrip] (DUB, MVO) [ 746 MB ] Судная ночь навсегда / The Forever Purge [2021 BDRip] DUB [Пифагор ] bober100 Скачать
1 | 0
Фильмы [HD 720p, 1080p] (Хороший звук DUB, MVO) [ 7.89 GB ] Судная ночь навсегда / The Forever Purge [2021 BDRip 1080p] +AVO [М.Яроцкий] bober100 Скачать
2 | 0
Ultra HD (UHD: 2K, 4K, 8K) — видео сверхвысокой чёткости [ 46.65 GB ] Судная ночь навсегда / The Forever Purge [2021 UHD BDRemux 2160p] +AVO [М.Яроцкий] bober100 Скачать
1 | 0
Фильмы (Blu-ray, BD-Remux, HDDVD) [ 28.2 GB ] Судная ночь навсегда / The Forever Purge [2021 BD Remux 1080p] +AVO [М.Яроцкий] bober100 Скачать
1 | 0
Фильмы 2021 [DVDrip, WEB-DLRip, HDrip] (DUB, MVO) [ 1.46 GB ] Судная ночь навсегда / The Forever Purge [2021 BDRip] - [ / Кинопоиск HD] Twi7ter Скачать
24 | 3
Ultra HD (UHD: 2K, 4K, 8K) — видео сверхвысокой чёткости [ 17.65 GB ] Судная ночь навсегда / The Forever Purge [2021 UHD WEB-DL 2160p] DUB [Пифагор] +DVO [Pazl Voice] bober100 Скачать
1 | 0
Фильмы 2021 (Звук TS, Cam, VO, DVO) [ 2.45 GB ] Судная ночь навсегда / The Forever Purge [2021 HDRip-AVC] DUB AVO [ Яроцкий] от MediaBit Lithuania Скачать
1 | 0

28-11-2019 20:33  

Отключить всю рекламу на сайте

    Дорогой пользователь! Огромная просьба, поблагодарите релизера, оцените раздачу и оставьте свои комментарий, если Вы скачали Судная ночь навсегда через торрент бесплатно!
    Комментировать посты могут только пользователи прошедшие не сложную регистрацию
    Показать сообщения:    

    Судная ночь навсегда через торрент
    Скачать бесплатно Судная ночь навсегда
    Судная ночь навсегда скачать торрент
    Судная ночь навсегда смотреть онлайн
    Cкачать фильм Судная ночь навсегда бесплатно
    Судная ночь навсегда скачать торрент в хорошем качестве
    Судная ночь навсегда смотреть онлайн бесплатно в хорошем качестве


    Вы не можете начинать темы
    Вы не можете отвечать на сообщения
    Вы не можете редактировать свои сообщения
    Вы не можете удалять свои сообщения
    Вы не можете голосовать в опросах
    Вы не можете прикреплять файлы к сообщениям
    Вы можете скачивать файлы