>

7.4

iTunes

7.4

2 сезон

9.4

1 сезон

1

7.4

2 сезон

7.2

iTunes

6.0

MVO

13

6.1

iTunes

8.3

Пиратка

30

ULTIMATE

pack

9.9

Лицензия

ВАЖНО

ИГРА 18+

pack

7.3

RePack

MK11

7.7

RePack

jed

7.8

RePack

fifa19

8.5

RePack

RDR2

RePack

NEED FOR SPEED™ PAYBACK

1 сезон

9 сезон

Бесстыжие 9 сезон

Все сериалы

все сериалы на PB.wtf

RePack

FAR CRY 5

Anonymous, доброй ночи, мы катастрофически не успеваем собрать деньги на оплату серверов, помогите нам пожалуйста 5,10,15р., для нас важна любая помощь . В качестве благодарности мы отключим Вам всю рекламу на сайте (укажите свой ник в строку Ваше имя)!

×
  
Magnet ссылка

Полиэстер / Polyester (Джон Уотерс) [1981, комедия, BDRip 720p] [Criterion Collection] [MVO] (ТВ Центр) pb.wtf

Полиэстер через торрент pb.wtf

Размер: 11.21 GB | Добавлен: 3 мес. 24 д. назад | Торрент скачан:0 раз
Смотреть онлайн Полиэстер | Скачать    Ребята, помогите собрать деньги на оплату серверов!!!

23-09-2021 08:03 Полиэстер Скачать торрент  

Полиэстер / Polyester«It'll Blow Your Nose!»
Год выпуска: 1981
Страна: США
Студия: New Line Cinema
Жанр: комедия
Продолжительность: 01:26:09
Перевод: Профессиональный (многоголосый закадровый) - ТВ Центр
Субтитры: русские (на места без перевода karlivanovich), английские (SDH)
Навигация по главам: присутствует - 13 глав - не подписанные
Режиссер: Джон Уотерс / John Waters

В ролях: Дивайн, Тэб Хантер, Эдит Мэсси, Дэвид Самсон, Мэри Гарлингтон, Кен Кинг, Минк Стоул, Джони Рут Уайт, Ганс Крамм, Стив Баторс, Рик Брайтенфельд, Майкл Уотсон, Дерек Нил, Джин Хилл
Описание: Сатирическая история семейства Фишпау, проживающего в развращенном и лицемерном американском пригороде. Богопослушная женщина, мать не самых примерных и благополучных детей, начинает изменять своему мужу, спивается и деградирует. Ее супруг больше озабочен делами в своем порнотеатре. А уж об отпрысках и вовсе нечего говорить. Неряха дочь и токсикоман сын вряд ли станут опорой семьи и государства.

rating

Качество видео: BDRip 720p
Формат: MKV
Видео: 1280x694 (1.85:1), 23.976 fps, H.264, 17578 kb/s
Аудио №1: 48.0 kHz, AC3, 2 ch, ~192 kbps | Профессиональный (многоголосый закадровый) - ТВ Центр
Аудио №2: 48.0 kHz, FLAC, 1 ch, ~661 kbps | Английский
Аудио №3: 48.0 kHz, AC3, 1 ch, ~192 kbps | Commentary featuring Waters
Субтитры: Русские (на места без перевода karlivanovich), английские (SDH) | *.srt
Format : Matroska
Format version : Version 4
File size : 11.2 GiB
Duration : 1 h 26 min
Overall bit rate mode : Variable
Overall bit rate : 18.6 Mb/s
Movie name : Polyester.1981.BDRip 720p.encoderrr
Encoded date : UTC 2021-03-16 08:22:49
Writing application : mkvmerge v44.0.0 ('Domino') 64-bit
Writing library : libebml v1.3.10 + libmatroska v1.5.2

Video
ID : 1
Format : AVC
Format/Info : Advanced Video Codec
Format profile : High@L4.1
Format settings : CABAC / 9 Ref Frames
Format settings, CABAC : Yes
Format settings, Reference : 9 frames
Codec ID : V_MPEG4/ISO/AVC
Duration : 1 h 26 min
Bit rate : 17.6 Mb/s
Width : 1 280 pixels
Height : 694 pixels
Display aspect ratio : 1.85:1
Frame rate mode : Constant
Frame rate : 23.976 (24000/1001) FPS
Color space : YUV
Chroma subsampling : 4:2:0
Bit depth : 8 bits
Scan type : Progressive
Bits/(Pixel*Frame) : 0.825
Stream size : 10.6 GiB (94%)
Title : Criterion Collection
Writing library : x264 core 161 r3018 db0d417
Encoding settings : cabac=1 / ref=9 / deblock=1:-3:-3 / analyse=0x3:0x133 / me=umh / subme=11 / psy=1 / psy_rd=1.05:0.05 / mixed_ref=1 / me_range=48 / chroma_me=1 / trellis=2 / 8x8dct=1 / cqm=0 / deadzone=21,11 / fast_pskip=0 / chroma_qp_offset=-3 / threads=12 / lookahead_threads=3 / sliced_threads=0 / nr=0 / decimate=0 / interlaced=0 / bluray_compat=0 / constrained_intra=0 / bframes=13 / b_pyramid=2 / b_adapt=2 / b_bias=0 / direct=3 / weightb=1 / open_gop=1 / weightp=2 / keyint=250 / keyint_min=25 / scenecut=40 / intra_refresh=0 / rc_lookahead=40 / rc=crf / mbtree=0 / crf=16.5 / qcomp=0.65 / qpmin=0 / qpmax=69 / qpstep=4 / vbv_maxrate=62500 / vbv_bufsize=78125 / crf_max=0.0 / nal_hrd=none / filler=0 / ip_ratio=1.35 / pb_ratio=1.30 / aq=3:0.65
Language : English
Default : Yes
Forced : No
Color range : Limited
Color primaries : BT.709
Transfer characteristics : BT.709
Matrix coefficients : BT.709

Audio #1
ID : 2
Format : AC-3
Format/Info : Audio Coding 3
Commercial name : Dolby Digital
Codec ID : A_AC3
Duration : 1 h 26 min
Bit rate mode : Constant
Bit rate : 192 kb/s
Channel(s) : 2 channels
Channel layout : L R
Sampling rate : 48.0 kHz
Frame rate : 31.250 FPS (1536 SPF)
Compression mode : Lossy
Stream size : 118 MiB (1%)
Title : Профессиональный (многоголосый закадровый) ТВ Центр
Language : Russian
Service kind : Complete Main
Default : Yes
Forced : No

Audio #2
ID : 3
Format : FLAC
Format/Info : Free Lossless Audio Codec
Codec ID : A_FLAC
Duration : 1 h 26 min
Bit rate mode : Variable
Bit rate : 661 kb/s
Channel(s) : 1 channel
Channel layout : C
Sampling rate : 48.0 kHz
Frame rate : 11.719 FPS (4096 SPF)
Bit depth : 24 bits
Compression mode : Lossless
Stream size : 407 MiB (4%)
Writing library : libFLAC 20080709 (UTC 2008-07-09)
Language : English
Default : No
Forced : No

Audio #3
ID : 4
Format : AC-3
Format/Info : Audio Coding 3
Commercial name : Dolby Digital
Codec ID : A_AC3
Duration : 1 h 26 min
Bit rate mode : Constant
Bit rate : 192 kb/s
Channel(s) : 1 channel
Channel layout : C
Sampling rate : 48.0 kHz
Frame rate : 31.250 FPS (1536 SPF)
Compression mode : Lossy
Stream size : 118 MiB (1%)
Title : Audio commentary featuring Waters
Language : English
Service kind : Complete Main
Default : No
Forced : No

Text #1
ID : 5
Format : UTF-8
Codec ID : S_TEXT/UTF8
Codec ID/Info : UTF-8 Plain Text
Duration : 2 min 37 s
Bit rate : 172 b/s
Count of elements : 36
Stream size : 3.32 KiB (0%)
Title : форсированные karlivanovich
Language : Russian
Default : Yes
Forced : No

Text #2
ID : 6
Format : UTF-8
Codec ID : S_TEXT/UTF8
Codec ID/Info : UTF-8 Plain Text
Duration : 1 h 24 min
Bit rate : 67 b/s
Count of elements : 1346
Stream size : 41.8 KiB (0%)
Title : SDH
Language : English
Default : No
Forced : No

Menu
00:00:00.000 : en:01
00:03:07.604 : en:02
00:06:13.873 : en:03
00:10:46.688 : en:04
00:16:02.795 : en:05
00:21:10.352 : en:06
00:29:34.648 : en:07
00:38:41.236 : en:08
00:46:13.020 : en:09
00:55:00.589 : en:10
01:04:12.515 : en:11
01:12:05.404 : en:12
01:16:13.486 : en:13
скриншот  скриншот  скриншот  
pb.wtf



Скачать Полиэстер через торрент https://i115.fastpic.org/big/2021/0923/4d/7fe15bd9a7d28a06b63f00a2a2c9ee4d.jpg Скачать, смотреть онлайн Полиэстер бесплантно в хорошем качестве Описание: Сатирическая история семейства Фишпау, проживающего в развращенном и лицемерном американском пригороде. Богопослушная женщина, ... 10 10 1
Торрент: Зарегистрирован [2021-09-23 08:03] · скачан: 0 раз
Статус: √ проверено
Размер: 11.21 GB
Как cкачать? Как скачать Полиэстер через торрент | UTorrent

% Раздел Тема Автор DL S | L
Арт-хаус и авторское кино [ 1.37 GB ] Полиэстер / Polyester [1981 BDRip] [Criterion Collection] [MVO] killermax2013 Скачать
1 | 0

28-11-2019 20:33  

Отключить всю рекламу на сайте

    Дорогой пользователь! Огромная просьба, поблагодарите релизера, оцените раздачу и оставьте свои комментарий, если Вы скачали Полиэстер через торрент бесплатно!
    Комментировать посты могут только пользователи прошедшие не сложную регистрацию
    Показать сообщения:    

    Полиэстер через торрент
    Скачать бесплатно Полиэстер
    Полиэстер скачать торрент
    Полиэстер смотреть онлайн
    Cкачать фильм Полиэстер бесплатно
    Полиэстер скачать торрент в хорошем качестве
    Полиэстер смотреть онлайн бесплатно в хорошем качестве


    Вы не можете начинать темы
    Вы не можете отвечать на сообщения
    Вы не можете редактировать свои сообщения
    Вы не можете удалять свои сообщения
    Вы не можете голосовать в опросах
    Вы не можете прикреплять файлы к сообщениям
    Вы можете скачивать файлы