Anonymous, добрый день, присоединяйтесь к нам в Telegram!, здесь всегда актуальный адрес сайта, оперативная поддержка и многое другое!

>

5.5

iTunes

7.4

iTunes

7.9

iTunes

1

7.7

1 сезон

6.8

iTunes

7.3

1 сезон

13

6.7

1 сезон

8.3

RePack

30

ULTIMATE

pack

9.9

Лицензия

ВАЖНО

ИГРА 18+

pack

7.3

RePack

MK11

7.7

RePack

jed

7.8

RePack

fifa19

8.5

RePack

RDR2

RePack

NEED FOR SPEED™ PAYBACK

4 сезон

9 сезон

Бесстыжие 9 сезон

Все сериалы

все сериалы на PB.wtf

RePack

FAR CRY 5

Anonymous, добрый день, мы катастрофически не успеваем собрать деньги на оплату серверов, помогите нам пожалуйста 5,10,15р., для нас важна любая помощь . В качестве благодарности мы отключим Вам всю рекламу на сайте (укажите свой ник в строку Ваше имя)!

×
  
Magnet ссылка

Утраченный символ / Dan Brown's The Lost Symbol / Сезон: 1 / Серии: 1-6 из 10 (Дэн Трахтенберг, Матиас Хендл, Борис Мойсовски) [2021, Боевик, триллер, драма, детектив, приключения, WEB-DL 1080p] MVO [Novamedia] pb.wtf

Утраченный символ через торрент pb.wtf

Раздают: 12 [ 514 KB/s ] Качают: 6 [ 0 KB/s ]
Размер: 6.54 GB | Добавлен: 2 д. 9 ч. назад | Торрент скачан:12 раз
Смотреть онлайн Утраченный символ | Скачать    Ребята, помогите собрать деньги на оплату серверов!!!

24-09-2021 03:39 Утраченный символ Скачать торрент  

Утраченный символ | Dan Brown's The Lost Symbol
Год выпуска: 2021
Страна: США
Выпущено: Universal Television Imagine Entertainment, Imagine Television, CBS Studios
Жанр: Боевик, триллер, драма, детектив, приключения
Продолжительность: ~00:45:00
Перевод: Профессиональный (многоголосый) | Novamedia
Субтитры: Русские вшитые на текс анг и на речь

Режиссер: Дэн Трахтенберг, Матиас Хендл, Борис Мойсовски

rating

В ролях: Эшли Цукерман, Рауль Банеджа, Тайрон Бенскин, Ники Бурк, Вэлори Керри, Габриэль Давенпорт, Лаура ДеКартере, Рик Гонсалес, Эдди Иззард, Кинэн Джолифф

Описание: Молодой профессор Гарварда Роберт Лэнгдон получает приглашение выступить с лекцией в Капитолии. Незадолго до мероприятия он узнает, что его наставника Питера Соломона похитили. Злоумышленники оставили на месте преступления отсеченную руку Соломона. Чтобы спасти друга и остановить глобальный заговор, профессору религиозной символогии предстоит расшифровать «утраченное слово» масонов.

Качество: WEB-DL 1080p
Формат: MKV

Видео: MPEG-4 AVC, ~ 3500 Кбит/с, 1920x1080, 23.976 кадр/с
Аудио Rus: 48.0 kHz, AC3 Dolby Digital, 2/0 (L,R) ch, ~ 192 kbps
скриншот  скриншот  скриншот  скриншот  

Общее
Уникальный идентификатор : 229796656766329622416786851973588942081 (0xACE139EAC672638B9E3BA8B47CD57D01)
Полное имя : D:\Dan Brown's The Lost Symbol.S01.WEB-DL.1080.25Kuzmich\Dan.Brown's.The.Lost.Symbol.S01E01.WEB-DL.1080.25Kuzmich.mkv
Формат : Matroska
Версия формата : Version 2
Размер файла : 1,12 Гбайт
Продолжительность : 43 м. 51 с.
Общий поток : 3 653 Кбит/сек
Дата кодирования : UTC 2021-09-23 22:15:50
Программа кодирования : mkvmerge v4.0.0 ('The Stars were mine') сборка от Jun 6 2010 16:18:42
Библиотека кодирования : libebml v1.0.0 + libmatroska v1.0.0

Видео
Идентификатор : 1
Формат : AVC
Формат/Информация : Advanced Video Codec
Профиль формата : High@L5
Настройки формата : CABAC / 5 Ref Frames
Параметр CABAC формата : Да
Параметр RefFrames формата : 5 кадров
Параметр GOP формата : M=4, N=50
Идентификатор кодека : V_MPEG4/ISO/AVC
Продолжительность : 43 м. 51 с.
Битрейт : 3 488 Кбит/сек
Ширина : 1 920 пикселей
Высота : 1 080 пикселей
Соотношение сторон : 16:9
Режим частоты кадров : Постоянный
Частота кадров : 25,000 кадров/сек
Цветовое пространство : YUV
Субдискретизация насыщенности : 4:2:0
Битовая глубина : 8 бит
Тип развёртки : Прогрессивная
Бит/(Пиксели*Кадры) : 0.065
Размер потока : 1,04 Гбайт (93%)
Язык : Russian
Default : Да
Forced : Нет
Цветовой диапазон : Limited
Основные цвета : BT.709
Характеристики трансфера : BT.709
Коэффициенты матрицы : BT.709

Аудио
Идентификатор : 2
Формат : AC-3
Формат/Информация : Audio Coding 3
Коммерческое название : Dolby Digital
Идентификатор кодека : A_AC3
Продолжительность : 43 м. 51 с.
Вид битрейта : Постоянный
Битрейт : 192 Кбит/сек
Каналы : 2 канала
Channel layout : L R
Частота : 48,0 КГц
Частота кадров : 31,250 кадров/сек (1536 SPF)
Метод сжатия : С потерями
Размер потока : 60,2 Мбайт (5%)
Язык : Russian
Service kind : Complete Main
Default : Да
Forced : Нет

Внимание! Раздача ведётся путём добавления новых серий; при каждом добавлении создаётся новый торрент.
Чтобы начать докачку новой серии, пользователям необходимо сделать следующее:
1. Остановить скачивание;
2. Удалить старый торрент у себя из клиента (старые серии удалять не надо);
3. Скачать новый торрент и запустить его у себя в клиенте вместо старого, при этом указать клиенту путь в старую папку куда и должно происходить скачивание новых серий. Ваш клиент при этом должен произвести хеширование (проверку) старой папки и будет докачивать только те серии, которых у вас ещё нет. Старые серии при этом не удаляются, а продолжают раздаваться! Eсли вы уже удалили старые серии, то предотвратить повторную закачку старых серий можно, отжав галочку в соответствующих местах при запуске нового торрента.

pb.wtf



Скачать Утраченный символ через торрент https://i115.fastpic.org/big/2021/0917/b7/32331d98878e8abb7555da5d0bb659b7.jpg Скачать, смотреть онлайн Утраченный символ бесплантно в хорошем качестве Описание: Молодой профессор Гарварда Роберт Лэнгдон получает приглашение выступить с лекцией в Капитолии. Незадолго до мероприятия он ... 10 10 6
Торрент: Зарегистрирован [2021-10-22 03:39] · скачан: 12 раз
Статус: √ проверено
Размер: 6.54 GB
Как cкачать? Как скачать Утраченный символ через торрент | UTorrent

28-11-2019 20:33  

Отключить всю рекламу на сайте

    Дорогой пользователь! Огромная просьба, поблагодарите релизера, оцените раздачу и оставьте свои комментарий, если Вы скачали Утраченный символ через торрент бесплатно!
    Комментировать посты могут только пользователи прошедшие не сложную регистрацию
    Показать сообщения:    

    Утраченный символ через торрент
    Скачать бесплатно Утраченный символ
    Утраченный символ скачать торрент
    Утраченный символ смотреть онлайн
    Cкачать фильм Утраченный символ бесплатно
    Утраченный символ скачать торрент в хорошем качестве
    Утраченный символ смотреть онлайн бесплатно в хорошем качестве


    Вы не можете начинать темы
    Вы не можете отвечать на сообщения
    Вы не можете редактировать свои сообщения
    Вы не можете удалять свои сообщения
    Вы не можете голосовать в опросах
    Вы не можете прикреплять файлы к сообщениям
    Вы можете скачивать файлы