Anonymous, добрый вечер, присоединяйтесь к нам в Telegram!, здесь всегда актуальный адрес сайта, оперативная поддержка и многое другое!

>

5.6

iTunes

7.4

iTunes

5.7

MVO

1

7.7

1 сезон

6.8

iTunes

7.3

1 сезон

13

6.7

1 сезон

8.3

RePack

30

ULTIMATE

pack

9.9

Лицензия

ВАЖНО

ИГРА 18+

pack

7.3

RePack

MK11

7.7

RePack

jed

7.8

RePack

fifa19

8.5

RePack

RDR2

RePack

NEED FOR SPEED™ PAYBACK

4 сезон

9 сезон

Бесстыжие 9 сезон

Все сериалы

все сериалы на PB.wtf

RePack

FAR CRY 5

Anonymous, добрый вечер, мы катастрофически не успеваем собрать деньги на оплату серверов, помогите нам пожалуйста 5,10,15р., для нас важна любая помощь . В качестве благодарности мы отключим Вам всю рекламу на сайте (укажите свой ник в строку Ваше имя)!

×
  
Magnet ссылка

Я создан для тебя / Ich bin dein Mensch / I'm Your Man (Мария Шрадер) [2021, Фантастика, мелодрама, комедия, BD Remux 1080i] DUB [iTunes] pb.wtf

Я создан для тебя через торрент pb.wtf

Раздают: 1 [ 86 KB/s ]
Размер: 27.95 GB | Добавлен: 24 д. назад | Торрент скачан:13 раз
Смотреть онлайн Я создан для тебя | Скачать    Ребята, помогите собрать деньги на оплату серверов!!!

24-09-2021 03:45 Я создан для тебя Скачать торрент  

Я создан для тебя | Ich bin dein Mensch | I'm Your Man
Год выпуска: 2021
Страна: Германия
Жанр: Фантастика, мелодрама, комедия
Продолжительность: 01:43:54
Перевод: Дублированный | iTunes
Субтитры: Русские (Full)

Режиссер: Мария Шрадер

rating

В ролях: Марен Эггерт, Дэн Стивенс, Сандра Хюллер, Ганс Лёв, Вольфганг Хюбш, Анника Мейер, Фалилу Сек, Юрген Таррах, Генриетта Рихтер-Роль, Моника Ошек

Описание: Идеальных мужчин не существует, но теперь их можно создать! Том — робот-красавчик, запрограммированный угадывать и исполнять любые желания своей владелицы Альмы. Но она оказывается не так проста и предсказуема. Теперь каждому из них предстоит узнать, что значит любить и быть человеком.

Качество: BD Remux 1080i
Формат: MKV

Видео: MPEG-4 AVC, 1920x1080, 34.8 Mbit/s, 25.000 fps
Аудио #01: 48 kHz, AC3, 5.1, 384 Kbps | Дублированный | RUS |
Аудио #02: 48 kHz, DTS-HD MA, 5.1, 3357 Kbps | Оригинал | GER |
скриншот  скриншот  скриншот  скриншот  скриншот  

General
Unique ID : 272503790487455685901699058302420778076 (0xCD02522D7103829EB187CF515527FC5C)
Complete name : E:VideoI.m.Your.Man.2021.BDREMUX.1080i.seleZen.mkv
Format : Matroska
Format version : Version 4
File size : 28.0 GiB
Duration : 1 h 43 min
Overall bit rate mode : Variable
Overall bit rate : 38.5 Mb/s
Movie name : I'm Your Man 2021 from seleZen
Encoded date : UTC 2021-09-23 22:58:52
Writing application : mkvmerge v59.0.0 ('Shining Star') 64-bit
Writing library : libebml v1.4.2 + libmatroska v1.6.4

Video
ID : 1
ID in the original source m : 4113 (0x1011)
Format : AVC
Format/Info : Advanced Video Codec
Format profile : High@L4.1
Format settings : CABAC / 4 Ref Frames
Format settings, CABAC : Yes
Format settings, Reference : 4 frames
Codec ID : V_MPEG4/ISO/AVC
Duration : 1 h 43 min
Bit rate mode : Variable
Bit rate : 34.8 Mb/s
Maximum bit rate : 36.0 Mb/s
Width : 1 920 pixels
Height : 1 080 pixels
Display aspect ratio : 16:9
Frame rate mode : Constant
Frame rate : 25.000 FPS
Color space : YUV
Chroma subsampling : 4:2:0
Bit depth : 8 bits
Scan type : MBAFF
Scan type, store method : Interleaved fields
Scan order : Top Field First
Bits/(Pixel*Frame) : 0.671
Stream size : 25.2 GiB (90%)
Language : English
Default : Yes
Forced : No
Original source medium : Blu-ray

Audio #1
ID : 2
Format : AC-3
Format/Info : Audio Coding 3
Commercial name : Dolby Digital
Codec ID : A_AC3
Duration : 1 h 43 min
Bit rate mode : Constant
Bit rate : 384 kb/s
Channel(s) : 6 channels
Channel layout : L R C LFE Ls Rs
Sampling rate : 48.0 kHz
Frame rate : 31.250 FPS (1536 SPF)
Compression mode : Lossy
Stream size : 285 MiB (1%)
Title : iTunes
Language : Russian
Service kind : Complete Main
Default : Yes
Forced : Yes

Audio #2
ID : 3
ID in the original source m : 4352 (0x1100)
Format : DTS XLL
Format/Info : Digital Theater Systems
Commercial name : DTS-HD Master Audio
Codec ID : A_DTS
Duration : 1 h 43 min
Bit rate mode : Variable
Bit rate : 3 357 kb/s
Channel(s) : 6 channels
Channel layout : C L R Ls Rs LFE
Sampling rate : 48.0 kHz
Frame rate : 93.750 FPS (512 SPF)
Bit depth : 24 bits
Compression mode : Lossless
Stream size : 2.44 GiB (9%)
Title : Original
Language : German
Default : No
Forced : No
Original source medium : Blu-ray

Text
ID : 4
Format : UTF-8
Codec ID : S_TEXT/UTF8
Codec ID/Info : UTF-8 Plain Text
Duration : 1 h 38 min
Bit rate : 83 b/s
Count of elements : 994
Stream size : 60.2 KiB (0%)
Title : Full
Language : Russian
Default : No
Forced : No

Menu
00:00:00.000 : Chapter 01
00:07:10.040 : Chapter 02
00:11:52.320 : Chapter 03
00:17:24.800 : Chapter 04
00:24:49.920 : Chapter 05
00:32:44.040 : Chapter 06
00:41:02.840 : Chapter 07
00:48:29.440 : Chapter 08
00:56:32.000 : Chapter 09
01:03:01.240 : Chapter 10
01:07:27.800 : Chapter 11
01:14:46.320 : Chapter 12
01:21:31.360 : Chapter 13
01:27:59.640 : Chapter 14
01:33:11.320 : Chapter 15
01:39:45.560 : Chapter 16

pb.wtf



Скачать Я создан для тебя через торрент https://d.radikal.ru/d43/2109/57/99f8bd335817.jpg Скачать, смотреть онлайн Я создан для тебя бесплантно в хорошем качестве Описание: Идеальных мужчин не существует, но теперь их можно создать! Том — робот-красавчик, запрограммированный угадывать и исполнять ... 10 10 5
Торрент: Зарегистрирован [2021-09-24 03:45] · скачан: 13 раз
Статус: √ проверено
Размер: 27.95 GB
Как cкачать? Как скачать Я создан для тебя через торрент | UTorrent

28-11-2019 20:33  

Отключить всю рекламу на сайте

    Дорогой пользователь! Огромная просьба, поблагодарите релизера, оцените раздачу и оставьте свои комментарий, если Вы скачали Я создан для тебя через торрент бесплатно!
    Комментировать посты могут только пользователи прошедшие не сложную регистрацию
    Показать сообщения:    

    Я создан для тебя через торрент
    Скачать бесплатно Я создан для тебя
    Я создан для тебя скачать торрент
    Я создан для тебя смотреть онлайн
    Cкачать фильм Я создан для тебя бесплатно
    Я создан для тебя скачать торрент в хорошем качестве
    Я создан для тебя смотреть онлайн бесплатно в хорошем качестве


    Вы не можете начинать темы
    Вы не можете отвечать на сообщения
    Вы не можете редактировать свои сообщения
    Вы не можете удалять свои сообщения
    Вы не можете голосовать в опросах
    Вы не можете прикреплять файлы к сообщениям
    Вы можете скачивать файлы