Достать ножи: Стеклянная луковица

MVO

Добыча

Дубляж

Уэнсдэй

1 сезон

Тор

Дубляж

13 клиническая

1 сезон

Жестокая ночь

MVO

Одни из нас

1 сезон

Deluxe

pack

Рекомендуем

30

Пиратка

ВАЖНО

ВАЖНО

Ghostwire

Пиратка

jed

RePack

nioh2

RePack

RDR2

RePack

NEED FOR SPEED™ PAYBACK

RePack

скачать торрент

Кинопоиск HD

Острые козырьки 6 сезон

6 сезон

FAR CRY 6

RePack

скачать торрент

Лицензия

скачать торрент

MVO

1

1 сезон

скачать торрент

1 сезон

скачать торрент

Лицензия

  

Ночная прогулка / Night Walk (Азиз Тази) [2019, Боевик, криминал, BDRip 720p] Дубляж [iTunes]

Ночная прогулка через торрент pb.wtf

Размер: 3.69 GB | Добавлен: 1 год 4 мес. назад | Торрент скачан:70 раз
Смотреть онлайн | Скачать | Поддержите нас   

24-09-2021 04:12 Ночная прогулка Скачать торрент  

Ночная прогулка | Night Walk
Год выпуска: 2019
Страна: США
Студия: Alexander Media, Lena River productions, Ole Entertainment
Жанр: Боевик, криминал
Продолжительность: 01:39:51
Перевод: Дублированный | iTunes
Субтитры: Английские

Режиссер: Азиз Тази

rating

В ролях: Шон Стоун, Сара Алами, Микки Рурк, Эрик Робертс, Лауни Муид, Рикко Росс, Ричард Тайсон, Луис Мэндилор, Патрик Килпатрик, Джеймс Кох

Описание: Американец-атеист Фрэнк влюбился в арабскую девушку Сару и решил сделать ей предложение в ее родном городе. Однако коррумпированные исламские полицейские схватили влюблённых и потребовали взятку за то, чтобы выпустить их на свободу, убили Сару, а всю вину свалили на Фрэнка. В тюрьме Фрэнк проходит путь духовного перерождения под влиянием своего сокамерника-мусульманина. Когда его друга убивают как возможного свидетеля преступления судьи, Фрэнку приходится бежать, чтобы не стать следующей жертвой.

Качество: BDRip 1080p
Формат: MKV

Видео: MPEG-4 AVC, 1920x806, 9366 Кbit/s, 23.976 fps
Аудио#1: 48 kHz, AC3, 5.1, 384 Kbps | iTunes | RUS |
Аудио#2: 48 kHz, AC3, 5.1, 640 Kbps | Оригинал | ENG |
скриншот  скриншот  скриншот  скриншот  скриншот  

General
Unique ID : 50102376182000389786175776486887684751 (0x25B15DDD422D4E71159E6F82BEF67A8F)
Complete name : E:VideoNight.Walk.2019.BDRip.720p.seleZen.mkv
Format : Matroska
Format version : Version 4
File size : 3.69 GiB
Duration : 1 h 39 min
Overall bit rate : 5 287 kb/s
Movie name : Night Walk 2019 from seleZen
Encoded date : UTC 2021-09-24 02:32:41
Writing application : mkvmerge v59.0.0 ('Shining Star') 64-bit
Writing library : libebml v1.4.2 + libmatroska v1.6.4

Video
ID : 1
Format : AVC
Format/Info : Advanced Video Codec
Format profile : [email protected]
Format settings : CABAC / 12 Ref Frames
Format settings, CABAC : Yes
Format settings, Reference : 12 frames
Codec ID : V_MPEG4/ISO/AVC
Duration : 1 h 39 min
Bit rate : 4 265 kb/s
Width : 1 280 pixels
Height : 538 pixels
Display aspect ratio : 2.40:1
Frame rate mode : Constant
Frame rate : 23.976 (24000/1001) FPS
Color space : YUV
Chroma subsampling : 4:2:0
Bit depth : 8 bits
Scan type : Progressive
Bits/(Pixel*Frame) : 0.258
Stream size : 2.97 GiB (81%)
Writing library : x264 core 146 -from seleZen
Encoding settings : cabac=1 / ref=12 / deblock=1:-2:-2 / analyse=0x3:0x133 / me=umh / subme=10 / psy=1 / psy_rd=1.03:0.05 / mixed_ref=1 / me_range=32 / chroma_me=1 / trellis=2 / 8x8dct=1 / cqm=0 / deadzone=21,11 / fast_pskip=0 / chroma_qp_offset=-3 / threads=48 / lookahead_threads=4 / sliced_threads=0 / nr=0 / decimate=0 / interlaced=0 / bluray_compat=0 / constrained_intra=0 / bframes=8 / b_pyramid=2 / b_adapt=2 / b_bias=0 / direct=3 / weightb=1 / open_gop=0 / weightp=2 / keyint=240 / keyint_min=23 / scenecut=40 / intra_refresh=0 / rc_lookahead=50 / rc=2pass / mbtree=0 / bitrate=4265 / ratetol=1.0 / qcomp=0.60 / qpmin=0 / qpmax=51 / qpstep=4 / cplxblur=20.0 / qblur=0.5 / vbv_maxrate=50000 / vbv_bufsize=62500 / nal_hrd=none / filler=0 / ip_ratio=1.40 / pb_ratio=1.30 / aq=3:0.80
Language : English
Default : Yes
Forced : No

Audio #1
ID : 2
Format : AC-3
Format/Info : Audio Coding 3
Commercial name : Dolby Digital
Codec ID : A_AC3
Duration : 1 h 39 min
Bit rate mode : Constant
Bit rate : 384 kb/s
Channel(s) : 6 channels
Channel layout : L R C LFE Ls Rs
Sampling rate : 48.0 kHz
Frame rate : 31.250 FPS (1536 SPF)
Compression mode : Lossy
Stream size : 274 MiB (7%)
Title : iTunes
Language : Russian
Service kind : Complete Main
Default : Yes
Forced : Yes

Audio #2
ID : 3
Format : AC-3
Format/Info : Audio Coding 3
Commercial name : Dolby Digital
Codec ID : A_AC3
Duration : 1 h 39 min
Bit rate mode : Constant
Bit rate : 640 kb/s
Channel(s) : 6 channels
Channel layout : L R C LFE Ls Rs
Sampling rate : 48.0 kHz
Frame rate : 31.250 FPS (1536 SPF)
Compression mode : Lossy
Stream size : 457 MiB (12%)
Title : Original
Language : English
Service kind : Complete Main
Default : No
Forced : No

Text
ID : 4
Format : UTF-8
Codec ID : S_TEXT/UTF8
Codec ID/Info : UTF-8 Plain Text
Duration : 1 h 33 min
Bit rate : 71 b/s
Count of elements : 1384
Stream size : 48.7 KiB (0%)
Title : Full
Language : English
Default : No
Forced : No

Menu
00:00:00.000 : Chapter 01
00:13:45.825 : Chapter 02
00:24:59.623 : Chapter 03
00:36:49.916 : Chapter 04
00:48:45.422 : Chapter 05
01:00:45.767 : Chapter 06
01:11:58.897 : Chapter 07
01:25:33.628 : Chapter 08




Скачать Ночная прогулка через торрент https://c.radikal.ru/c05/2109/a9/1d309b8da86d.jpg Скачать, смотреть онлайн Ночная прогулка бесплантно в хорошем качестве Описание: Американец-атеист Фрэнк влюбился в арабскую девушку Сару и решил сделать ей предложение в ее родном городе. Однако ... 10 10 4
Торрент: Зарегистрирован [2021-09-24 04:12] · скачан: 70 раз
Статус: √ проверено
Размер: 3.69 GB
Как cкачать? Как скачать Ночная прогулка через торрент | UTorrent

% Раздел Тема Автор DL S | L
Фильмы (Blu-ray, BD-Remux, HDDVD) [ 15.63 GB ] Ночная прогулка / Night Walk | iTunes | BD Remux 1080p bober100 Скачать
1 | 0
Фильмы [HD 720p, 1080p] (Хороший звук DUB, MVO) [ 7.24 GB ] Ночная прогулка / Night Walk | iTunes | 1080p bober100 Скачать
1 | 0
Фильмы (WEB-DL 720p, 1080p) [ 3.72 GB ] Ночная прогулка / Night Walk | iTunes | 1080p bober100 Скачать
1 | 0
Фильмы 2019-2020 [DVDrip, WEB-DLRip, HDrip] (DUB, MVO) [ 717 MB ] Ночная прогулка / Night Walk | iTunes" | DLRip, Дубляж "iTunes" coc900 Скачать
1 | 0
Фильмы 2019-2020 [DVDrip, WEB-DLRip, HDrip] (DUB, MVO) [ 1.46 GB ] Ночная прогулка / Night Walk | iTunes | BDRip bober100 Скачать
1 | 0

28-11-2019 20:33  


Отключить вcю реклaмy на сайте, в т.ч. и в плеере онлайн просмотра!

    Дорогой пользователь! Огромная просьба, поблагодарите релизера, оцените раздачу и оставьте свои комментарий, если Вы скачали Ночная прогулка через торрент бесплатно!!
    Комментировать посты могут только пользователи прошедшие не сложную регистрацию
    Показать сообщения:    


    Ночная прогулка через торрент
    Скачать бесплатно Ночная прогулка
    Ночная прогулка скачать торрент
    Ночная прогулка смотреть онлайн
    Cкачать фильм Ночная прогулка бесплатно
    Ночная прогулка скачать торрент в хорошем качестве
    Ночная прогулка смотреть онлайн бесплатно в хорошем качестве
    Вы не можете начинать темы
    Вы не можете отвечать на сообщения
    Вы не можете редактировать свои сообщения
    Вы не можете удалять свои сообщения
    Вы не можете голосовать в опросах
    Вы не можете прикреплять файлы к сообщениям
    Вы можете скачивать файлы
    Ночная прогулка / Night Walk [2019, Боевик, криминал, BDRip 720p] Дубляж [iTunes] смотреть онлайн, скачать торрент picoco.icu