Присоединяйтесь к нам в Telegram!, здесь всегда актуальный адрес сайта, оперативная поддержка и многое другое!!

>

5.9

iTunes

7.4

iTunes

9.4

1 сезон

1

7.4

2 сезон

7.2

iTunes

7.3

1 сезон

13

6.1

iTunes

8.3

Пиратка

30

ULTIMATE

pack

9.9

Лицензия

ВАЖНО

ИГРА 18+

pack

7.3

RePack

MK11

7.7

RePack

jed

7.8

RePack

fifa19

8.5

RePack

RDR2

RePack

NEED FOR SPEED™ PAYBACK

5 сезон

9 сезон

Бесстыжие 9 сезон

Все сериалы

все сериалы на PB.wtf

RePack

FAR CRY 5

Anonymous, доброй ночи, мы катастрофически не успеваем собрать деньги на оплату серверов, помогите нам пожалуйста 5,10,15р., для нас важна любая помощь . В качестве благодарности мы отключим Вам всю рекламу на сайте (укажите свой ник в строку Ваше имя)!

×
  
Magnet ссылка

Главный герой / Free Guy (Шон Леви) [2021, фантастика, боевик, комедия, HDRip-AVC] [DUB] [Line] pb.wtf

Главный герой через торрент pb.wtf

Раздают: 35 [ 0 KB/s ]
Размер: 2.31 GB | Добавлен: 2 мес. 9 д. назад | Торрент скачан:1437 раз
Смотреть онлайн Главный герой | Скачать    Ребята, помогите собрать деньги на оплату серверов!!!

24-09-2021 08:53 Главный герой Скачать торрент  

Главный герой / Free Guy

Год выпуска: 2021
Страна: США
Жанр: фантастика, боевик, комедия
Продолжительность: 01:54:58
Перевод: Дублированный | Line
Субтитры: Русские (от MENINSUB), английские

Режиссер: Шон Леви

В ролях: Райан Рейнольдс, Джоди Комер, Тайка Вайтити, Уткарш Амбудкар, Джо Кири, Камилль Костек, Лил Рел Ховери, Кимберли Хоу, Мэтти Кардаропл, Тейт Флетчер

Описание: У сотрудника крупного банка всё идёт по накатанной, пока однажды он не выясняет, что окружающий его мир — это часть огромной видеоигры, а сам он в ней — всего лишь второстепенный персонаж. Хватит ли у него духу переписать свой код, обратить на себя внимание прекрасной девушки и, наконец, спасти мир? Одним словом, получится ли из него главный герой?

rating

Качество: HDRip-AVC
Формат: MKV
Видео: MPEG-4 AVC, 2230 Кбит/с, 1024x428
Аудио rus: AC3, 48.0 kHz, 2 ch, 192 kb/s
Аудио eng: AC3, 48.0 kHz, 6 ch, 448 kb/s
скриншот  скриншот  скриншот  
Общее
Уникальный идентификатор : 140344316757156427978715924957087325235 (0x6995550C27A0CCF794E1619385EEDC33)
Полное имя : E:TorrentsFree.Guy.2021.HDRip-AVC_Line.JNS82.mkv
Формат : Matroska
Версия формата : Version 4
Размер файла : 2,31 Гбайт
Продолжительность : 1 ч. 54 м.
Общий поток : 2 872 Кбит/сек
Название фильма : Free.Guy.2021.HDRip-AVC_Line.JNS82
Дата кодирования : UTC 2021-09-26 09:40:00
Программа кодирования : mkvmerge v59.0.0 ('Shining Star') 64-bit
Библиотека кодирования : libebml v1.4.2 + libmatroska v1.6.4

Видео
Идентификатор : 1
Формат : AVC
Формат/Информация : Advanced Video Codec
Профиль формата : High@L4.1
Настройки формата : CABAC / 11 Ref Frames
Параметр CABAC формата : Да
Параметр RefFrames формата : 11 кадров
Идентификатор кодека : V_MPEG4/ISO/AVC
Продолжительность : 1 ч. 54 м.
Битрейт : 2 230 Кбит/сек
Ширина : 1 024 пикселя
Высота : 428 пикселей
Соотношение сторон : 2,40:1
Режим частоты кадров : Постоянный
Частота кадров : 23,976 (24000/1001) кадра/сек
Цветовое пространство : YUV
Субдискретизация насыщенности : 4:2:0
Битовая глубина : 8 бит
Тип развёртки : Прогрессивная
Бит/(Пиксели*Кадры) : 0.212
Размер потока : 1,79 Гбайт (78%)
Библиотека кодирования : x264 core 157 r2958 57baac4
Настройки программы : cabac=1 / ref=11 / deblock=1:-3:-3 / analyse=0x3:0x113 / me=umh / subme=9 / psy=1 / psy_rd=1.00:0.05 / mixed_ref=1 / me_range=32 / chroma_me=1 / trellis=1 / 8x8dct=1 / cqm=0 / deadzone=21,11 / fast_pskip=0 / chroma_qp_offset=-3 / threads=8 / lookahead_threads=2 / sliced_threads=0 / nr=0 / decimate=0 / interlaced=0 / bluray_compat=0 / constrained_intra=0 / bframes=11 / b_pyramid=2 / b_adapt=2 / b_bias=0 / direct=3 / weightb=1 / open_gop=0 / weightp=2 / keyint=240 / keyint_min=24 / scenecut=40 / intra_refresh=0 / rc=2pass / mbtree=0 / bitrate=2230 / ratetol=1.0 / qcomp=0.60 / qpmin=0 / qpmax=69 / qpstep=4 / cplxblur=20.0 / qblur=0.5 / ip_ratio=1.40 / pb_ratio=1.30 / aq=1:1.00
Язык : English
Default : Да
Forced : Нет
Цветовой диапазон : Limited
Коэффициенты матрицы : BT.709

Аудио #1
Идентификатор : 2
Формат : AC-3
Формат/Информация : Audio Coding 3
Коммерческое название : Dolby Digital
Идентификатор кодека : A_AC3
Продолжительность : 1 ч. 54 м.
Вид битрейта : Постоянный
Битрейт : 192 Кбит/сек
Каналы : 2 канала
Channel layout : L R
Частота : 48,0 КГц
Частота кадров : 31,250 кадров/сек (1536 SPF)
Метод сжатия : С потерями
Размер потока : 158 Мбайт (7%)
Заголовок : [DUB] Line
Язык : Russian
Service kind : Complete Main
Default : Да
Forced : Нет

Аудио #2
Идентификатор : 3
Формат : AC-3
Формат/Информация : Audio Coding 3
Коммерческое название : Dolby Digital
Идентификатор кодека : A_AC3
Продолжительность : 1 ч. 54 м.
Вид битрейта : Постоянный
Битрейт : 448 Кбит/сек
Каналы : 6 каналов
Channel layout : L R C LFE Ls Rs
Частота : 48,0 КГц
Частота кадров : 31,250 кадров/сек (1536 SPF)
Метод сжатия : С потерями
Размер потока : 368 Мбайт (16%)
Язык : English
Service kind : Complete Main
Default : Нет
Forced : Нет

Текст #1
Идентификатор : 4
Формат : UTF-8
Идентификатор кодека : S_TEXT/UTF8
Идентификатор кодека/Информация : UTF-8 Plain Text
Продолжительность : 1 ч. 45 м.
Битрейт : 114 бит/сек
Count of elements : 1886
Размер потока : 88,2 Кбайт (0%)
Язык : Russian
Default : Нет
Forced : Нет

Текст #2
Идентификатор : 5
Формат : UTF-8
Идентификатор кодека : S_TEXT/UTF8
Идентификатор кодека/Информация : UTF-8 Plain Text
Продолжительность : 1 ч. 45 м.
Битрейт : 80 бит/сек
Count of elements : 1902
Размер потока : 62,4 Кбайт (0%)
Язык : English
Default : Нет
Forced : Нет

Меню
00:00:00.000 : :Chapter 01
00:05:09.100 : :Chapter 02
00:08:43.815 : :Chapter 03
00:14:29.702 : :Chapter 04
00:21:25.701 : :Chapter 05
00:24:06.028 : :Chapter 06
00:28:25.245 : :Chapter 07
00:34:21.810 : :Chapter 08
00:39:40.837 : :Chapter 09
00:44:10.731 : :Chapter 10
00:48:47.967 : :Chapter 11
00:52:47.748 : :Chapter 12
00:56:18.375 : :Chapter 13
01:00:17.739 : :Chapter 14
01:04:41.920 : :Chapter 15
01:09:13.816 : :Chapter 16
01:15:13.300 : :Chapter 17
01:19:14.083 : :Chapter 18
01:23:59.326 : :Chapter 19
01:28:06.406 : :Chapter 20
01:33:07.415 : :Chapter 21
01:39:19.954 : :Chapter 22
01:44:22.506 : :Chapter 23
01:46:13.993 : :Chapter 24
pb.wtf



Скачать Главный герой через торрент https://i115.fastpic.org/big/2021/0813/9b/ffa5ad015ad7e781ab7e64dfd9a3089b.jpg Скачать, смотреть онлайн Главный герой бесплантно в хорошем качестве Описание: У сотрудника крупного банка всё идёт по накатанной, пока однажды он не выясняет, что окружающий его мир — это часть огромной ... 9.8 10 43
Info! Золотая раздача, скачанное не засчитывается.
Торрент: Зарегистрирован [2021-09-26 11:50] · скачан: 1 437 раз
Статус: T временная
Размер: 2.31 GB
Как cкачать? Как скачать Главный герой через торрент | UTorrent

% Раздел Тема Автор DL S | L
Фильмы 2021 [DVDrip, WEB-DLRip, HDrip] (DUB, MVO) [ 2.13 GB ] Главный герой / Free Guy [2021 BDRip] - Twi7ter Скачать
72 | 1
Фильмы 2021 [DVDrip, WEB-DLRip, HDrip] (DUB, MVO) [ 1.41 GB ] Главный герой / Free Guy [2021 BDRip] - Twi7ter Скачать
84 | 3
Фильмы (HD 720p, 1080p) (48-60 fps) [ 3.29 GB ] Главный герой / Free Guy [2021 WEB-DLRip - HEVC 1080p 10 bit 60 FPS DUB] dd2d3 Скачать
27 | 0
T Фильмы [HD 720p, 1080p] (Хороший звук DUB, MVO) [ 6.13 GB ] Главный герой / Free Guy [2021 BDRip 1080p] [Line] + [DVO] killermax2013 Скачать
23 | 0
Фильмы 2021 [DVDrip, WEB-DLRip, HDrip] (DUB, MVO) [ 721 MB ] Главный герой / Free Guy [2021 HDRip ""] coc900 Скачать
4 | 0
Фильмы 2021 [DVDrip, WEB-DLRip, HDrip] (DUB, MVO) [ 2.13 GB ] Главный герой / Free Guy [2021 BDRip] DUB bober100 Скачать
9 | 1
Фильмы 2021 [DVDrip, WEB-DLRip, HDrip] (DUB, MVO) [ 1.41 GB ] Главный герой / Free Guy [2021 BDRip] bober100 Скачать
16 | 0

28-11-2019 20:33  

Отключить всю рекламу на сайте

    Дорогой пользователь! Огромная просьба, поблагодарите релизера, оцените раздачу и оставьте свои комментарий, если Вы скачали Главный герой через торрент бесплатно!
    Комментировать посты могут только пользователи прошедшие не сложную регистрацию
    Показать сообщения:    

    Главный герой через торрент
    Скачать бесплатно Главный герой
    Главный герой скачать торрент
    Главный герой смотреть онлайн
    Cкачать фильм Главный герой бесплатно
    Главный герой скачать торрент в хорошем качестве
    Главный герой смотреть онлайн бесплатно в хорошем качестве


    Вы не можете начинать темы
    Вы не можете отвечать на сообщения
    Вы не можете редактировать свои сообщения
    Вы не можете удалять свои сообщения
    Вы не можете голосовать в опросах
    Вы не можете прикреплять файлы к сообщениям
    Вы можете скачивать файлы