Присоединяйтесь к нам в Telegram!, здесь всегда актуальный адрес сайта, оперативная поддержка и многое другое!!

>

5.9

iTunes

7.4

iTunes

9.4

1 сезон

1

7.4

2 сезон

7.2

iTunes

7.3

1 сезон

13

6.1

iTunes

8.3

Пиратка

30

ULTIMATE

pack

9.9

Лицензия

ВАЖНО

ИГРА 18+

pack

7.3

RePack

MK11

7.7

RePack

jed

7.8

RePack

fifa19

8.5

RePack

RDR2

RePack

NEED FOR SPEED™ PAYBACK

5 сезон

9 сезон

Бесстыжие 9 сезон

Все сериалы

все сериалы на PB.wtf

RePack

FAR CRY 5

Anonymous, доброй ночи, мы катастрофически не успеваем собрать деньги на оплату серверов, помогите нам пожалуйста 5,10,15р., для нас важна любая помощь . В качестве благодарности мы отключим Вам всю рекламу на сайте (укажите свой ник в строку Ваше имя)!

×
  
Magnet ссылка

Я создан для тебя / Ich bin dein Mensch (Мария Шрадер) [2021 г., фантастика, мелодрама, комедия, WEB-DLRip, Дубляж "iTunes"] pb.wtf

Я создан для тебя через торрент pb.wtf

Раздают: 3 [ 0 KB/s ]
Размер: 716 MB | Добавлен: 2 мес. 11 д. назад | Торрент скачан:58 раз
Смотреть онлайн Я создан для тебя | Скачать    Ребята, помогите собрать деньги на оплату серверов!!!

24-09-2021 18:13 Я создан для тебя Скачать торрент  

Я создан для тебя / Ich bin dein Mensch
Год выпуска: 2021
Страна: Германия / Letterbox Filmproduktion
Жанр: фантастика, мелодрама, комедия
Продолжительность: 01:43:31
Перевод: Дубляж (iTunes)

Режиссер: Мария Шрадер

rating

В ролях: Марен Эггерт, Дэн Стивенс, Сандра Хюллер, Ганс Лёв, Вольфганг Хюбш, Анника Мейер, Фалилу Сек, Юрген Таррах, Генриетта Рихтер-Роль, Моника Ошек

Описание: Идеальных мужчин не существует, но теперь их можно создать! Том — робот-красавчик, запрограммированный угадывать и исполнять любые желания своей владелицы Альмы. Но она оказывается не так проста и предсказуема. Теперь каждому из них предстоит узнать, что значит любить и быть человеком.

Качество: WEB-DLRip
Формат: AVI
Видео кодек: DivX
Аудио кодек: MP3
Видео: 640x320 (2.00:1), 25 fps, DivX Codec 4.x ~828 kbps avg, 0.16 bit/pixel
Аудио: 48 kHz, MPEG Layer 3, 2 ch, ~128.00 kbps avg

Общее
Полное имя : G:\ФИЛЬМЫ\Я создан для тебя.2021.D.WEB-DLRip.avi
Формат : AVI
Формат/Информация : Audio Video Interleave
Размер файла : 716 Мбайт
Продолжительность : 1 ч. 43 м.
Общий поток : 967 Кбит/сек
Программа кодирования : VirtualDubMod 1.5.10.3 | www.virtualdub-fr.org || (build 2550/release)
Библиотека кодирования : VirtualDubMod build 2550/release

Видео
Идентификатор : 0
Формат : MPEG-4 Visual
Профиль формата : Advanced Simple@L5
Настройки формата : BVOP2
Параметр BVOP формата : 2
Параметр QPel формата : Нет
Параметр GMC формата : Без точки перехода
Параметр матрицы формата : Default (MPEG)
Идентификатор кодека : DIVX
Идентификатор кодека/Информация : Project Mayo
Идентификатор кодека/Подсказка : DivX 4
Продолжительность : 1 ч. 43 м.
Битрейт : 829 Кбит/сек
Ширина : 640 пикселей
Высота : 320 пикселей
Соотношение сторон : 2,000
Частота кадров : 25,000 кадров/сек
Цветовое пространство : YUV
Субдискретизация насыщенности : 4:2:0
Битовая глубина : 8 бит
Тип развёртки : Прогрессивная
Метод сжатия : С потерями
Бит/(Пиксели*Кадры) : 0.162
Размер потока : 614 Мбайт (86%)
Библиотека кодирования : XviD 1.2.1 (UTC 2008-12-04)

Аудио
Идентификатор : 1
Формат : MPEG Audio
Версия формата : Version 1
Профиль формата : Layer 3
Настройки формата : Joint stereo
Идентификатор кодека : 55
Идентификатор кодека/Подсказка : MP3
Продолжительность : 1 ч. 43 м.
Вид битрейта : Постоянный
Битрейт : 128 Кбит/сек
Каналы : 2 канала
Частота : 48,0 КГц
Частота кадров : 41,667 кадра/сек (1152 SPF)
Метод сжатия : С потерями
Размер потока : 94,8 Мбайт (13%)
Выравнивание : Соединение по промежуткам
Продолжительность промежутка : 40 мс. (1,00 видеокадр)
Время предзагрузки промежутка : 504 мс.
Библиотека кодирования : LAME3.99r
Настройки программы : -m j -V 4 -q 2 -lowpass 17 -b 128

Report created by : MediaInfoLib - v21.09
Report created on : UTC 2021-09-24 17:58:28

pb.wtf



Скачать Я создан для тебя через торрент https://pic1.kartinco.top/new/img/2021-09/24/3zfwapjsx6q32c65709c0h5ds.jpg Скачать, смотреть онлайн Я создан для тебя бесплантно в хорошем качестве Описание: Идеальных мужчин не существует, но теперь их можно создать! Том — робот-красавчик, запрограммированный угадывать и исполнять ... 9.8 10 5
Торрент: Зарегистрирован [2021-09-24 18:13] · скачан: 58 раз
Статус: T временная
Размер: 716 MB
Как cкачать? Как скачать Я создан для тебя через торрент | UTorrent

% Раздел Тема Автор DL S | L
Фильмы [HD 720p, 1080p] (Хороший звук DUB, MVO) [ 6.08 GB ] Я создан для тебя / Ich bin dein Mensch / I'm Your Man [2021 BDRip 720p] bober100 Скачать
4 | 0
Фильмы [HD 720p, 1080p] (Хороший звук DUB, MVO) [ 11.62 GB ] Я создан для тебя / Ich bin dein Mensch / I'm Your Man [2021 BDRip 1080p] bober100 Скачать
4 | 0
Фильмы (Blu-ray, BD-Remux, HDDVD) [ 27.95 GB ] Я создан для тебя / Ich bin dein Mensch / I'm Your Man [2021 BD Remux 1080i] bober100 Скачать
1 | 0

28-11-2019 20:33  

Отключить всю рекламу на сайте

    Дорогой пользователь! Огромная просьба, поблагодарите релизера, оцените раздачу и оставьте свои комментарий, если Вы скачали Я создан для тебя через торрент бесплатно!
    Комментировать посты могут только пользователи прошедшие не сложную регистрацию
    Показать сообщения:    

    Я создан для тебя через торрент
    Скачать бесплатно Я создан для тебя
    Я создан для тебя скачать торрент
    Я создан для тебя смотреть онлайн
    Cкачать фильм Я создан для тебя бесплатно
    Я создан для тебя скачать торрент в хорошем качестве
    Я создан для тебя смотреть онлайн бесплатно в хорошем качестве


    Вы не можете начинать темы
    Вы не можете отвечать на сообщения
    Вы не можете редактировать свои сообщения
    Вы не можете удалять свои сообщения
    Вы не можете голосовать в опросах
    Вы не можете прикреплять файлы к сообщениям
    Вы можете скачивать файлы