Присоединяйтесь к нам в Telegram!, здесь всегда актуальный адрес сайта, оперативная поддержка и многое другое!!

>

5.9

iTunes

7.4

iTunes

9.4

1 сезон

1

7.4

2 сезон

7.2

iTunes

7.3

1 сезон

13

6.1

iTunes

8.3

GOG

30

ULTIMATE

pack

9.9

Лицензия

ВАЖНО

ИГРА 18+

pack

7.3

RePack

MK11

7.7

RePack

jed

7.8

RePack

fifa19

8.5

RePack

RDR2

RePack

NEED FOR SPEED™ PAYBACK

5 сезон

9 сезон

Бесстыжие 9 сезон

Все сериалы

все сериалы на PB.wtf

RePack

FAR CRY 5

Anonymous, добрый вечер, мы катастрофически не успеваем собрать деньги на оплату серверов, помогите нам пожалуйста 5,10,15р., для нас важна любая помощь . В качестве благодарности мы отключим Вам всю рекламу на сайте (укажите свой ник в строку Ваше имя)!

×
  
Magnet ссылка

Основание / Foundation / Сезон: 1 / Серии: 1-10 из 10 (Руперт Сандерс, Эндрю Бернштейн, Алекс Грейвз) [2021, Фантастика, драма, WEB-DL (HEVC) 1080p] [MVO] (HDRezka Studio) + [DUB] (Невафильм) + [Ukr MVO] (DniproFilm) pb.wtf

Основание через торрент pb.wtf

Раздают: 4 [ 310 KB/s ] Качают: 4 [ 0 KB/s ]
Размер: 13.7 GB | Добавлен: 11 д. назад | Торрент скачан:21 раз
Смотреть онлайн Основание | Скачать    Ребята, помогите собрать деньги на оплату серверов!!!

25-09-2021 12:29 Основание Скачать торрент  

Основание / Foundation

✦ Год выпуска: 2021
✦ Страна: США
✦ Выпущено: Skydance Television, Latina Pictures, Wild Atlantic Pictures
✦ Жанр: Фантастика, драма
✦ Продолжительность: ~ 01:00:00
✦ Перевод #1: Профессиональный (многоголосый) HDRezka Studio
✦ Перевод #2: Дублированный | Невафильм
✦ Перевод #3: Украинский (профессиональный, многоголосый)
✦ Субтитры: Русские (Forced, Full), английские, украинские (Forced, Full)

✦ Режиссер: Руперт Сандерс, Эндрю Бернштейн, Алекс Грейвз, Роксанн Доусон, Дженнифер Фанг

✦ В ролях: Джаред Харрис, Ли Пейс, Лу Льобелл, Леа Фергюсон, Лаура Бирн, Кассиан Билтон, Терренс Манн, Дэниэл МакФерсон, Т’Ниа Миллер, Парвеш Рана, Кюбра Саит, Никхил Пармар, Кларк Питерс, Мидо Хамада

✦ Описание: Сериал основан на одноимённой серии романов Айзека Азимова. В далёком будущем люди расселились за пределами Земли. Однако Галактическая империя грозит рухнуть, согласно расчётам ученого Гэри Селдона. И он создаёт организацию «Основание», призванную восстановить человеческую цивилизацию после грядущих потрясений.

rating

✦ Качество: WEB-DL (HEVC)1080p
✦ Формат: MKV
✦ Видео кодек: x.265
✦ Аудио кодек: AC3, E-AC3
✦ Видео: HEVC, 1920x960, 1 300 Kbps, 23,976 fps
✦ Аудио #1 Rus: 48 kHz, AC3, 6 ch, 448 kbps | HDRezka Studio
✦ Аудио #2 Rus: 48 kHz, AC3, 6 ch, 448 kbps | DUB
✦ Аудио #3 Ukr: 48 kHz, AC3, 6 ch, 384 kbps | DniproFilm
✦ Аудио #4 Eng: 48 kHz, E-AC3, 6 ch, 768 kbps|Original|
скриншот   скриншот   скриншот   скриншот   скриншот   скриншот  

General
Unique ID : 216267272418677378743549414086986944372 (0xA2B38FC4A3560FAA8CA70878A1EFCF74)
Complete name : G:\Foundation.S01.WEB-DL(HEVC)1080p\Foundation.S01E02.WEB-DL(HEVC)1080p.[MVO](HDRezka Studio), [DUB], [UKR](DniproFilm).xz.mkv
Format : Matroska
Format version : Version 4
File size : 1.51 GiB
Duration : 1 h 1 min
Overall bit rate : 3 495 kb/s
Movie name : Foundation.S01E02.WEB-DL(HEVC)1080p.[MVO](HDRezka Studio), [DUB], [UKR](DniproFilm).xz
Encoded date : UTC 2021-09-26 08:15:42
Writing application : mkvmerge v6.1.0 ('Old Devil') built on Mar 2 2013 14:32:37
Writing library : libebml v1.3.0 + libmatroska v1.4.0

Video
ID : 1
Format : HEVC
Format/Info : High Efficiency Video Coding
Format profile : Main 10@L4@Main
Codec ID : V_MPEGH/ISO/HEVC
Duration : 1 h 1 min
Bit rate : 1 378 kb/s
Width : 1 920 pixels
Height : 960 pixels
Display aspect ratio : 2.000
Frame rate mode : Constant
Frame rate : 23.976 (24000/1001) FPS
Color space : YUV
Chroma subsampling : 4:2:0
Bit depth : 10 bits
Bits/(Pixel*Frame) : 0.031
Stream size : 608 MiB (39%)
Title : Foundation.S01E02.WEB-DL(HEVC)1080p.[MVO](HDRezka Studio), [DUB], [UKR](DniproFilm).xz
Writing library : x265 3.5+1-f0c1022b6:[Mac OS X][clang 12.0.5][32 bit] 10bit
Encoding settings : cpuid=2 / frame-threads=3 / wpp / no-pmode / no-pme / no-psnr / no-ssim / log-level=2 / input-csp=1 / input-res=1920x960 / interlace=0 / total-frames=0 / level-idc=0 / high-tier=1 / uhd-bd=0 / ref=4 / no-allow-non-conformance / no-repeat-headers / annexb / no-aud / no-hrd / info / hash=0 / no-temporal-layers / open-gop / min-keyint=24 / keyint=240 / gop-lookahead=0 / bframes=4 / b-adapt=2 / b-pyramid / bframe-bias=0 / rc-lookahead=25 / lookahead-slices=4 / scenecut=40 / hist-scenecut=0 / radl=0 / no-splice / no-intra-refresh / ctu=64 / min-cu-size=8 / rect / no-amp / max-tu-size=32 / tu-inter-depth=1 / tu-intra-depth=1 / limit-tu=0 / rdoq-level=2 / dynamic-rd=0.00 / no-ssim-rd / signhide / no-tskip / nr-intra=0 / nr-inter=0 / no-constrained-intra / strong-intra-smoothing / max-merge=3 / limit-refs=3 / limit-modes / me=3 / subme=3 / merange=57 / temporal-mvp / no-frame-dup / no-hme / weightp / no-weightb / no-analyze-src-pics / deblock=0:0 / sao / no-sao-non-deblock / rd=4 / selective-sao=4 / no-early-skip / rskip / no-fast-intra / no-tskip-fast / no-cu-lossless / no-b-intra / no-splitrd-skip / rdpenalty=0 / psy-rd=2.00 / psy-rdoq=1.00 / no-rd-refine / no-lossless / cbqpoffs=0 / crqpoffs=0 / rc=crf / crf=23.0 / qcomp=0.60 / qpstep=4 / stats-write=0 / stats-read=0 / ipratio=1.40 / pbratio=1.30 / aq-mode=2 / aq-strength=1.00 / cutree / zone-count=0 / no-strict-cbr / qg-size=32 / no-rc-grain / qpmax=69 / qpmin=0 / no-const-vbv / sar=1 / overscan=0 / videoformat=5 / range=0 / colorprim=1 / transfer=1 / colormatrix=1 / chromaloc=0 / display-window=0 / cll=0,0 / min-luma=0 / max-luma=1023 / log2-max-poc-lsb=8 / vui-timing-info / vui-hrd-info / slices=1 / no-opt-qp-pps / no-opt-ref-list-length-pps / no-multi-pass-opt-rps / scenecut-bias=0.05 / hist-threshold=0.03 / no-opt-cu-delta-qp / no-aq-motion / no-hdr10 / no-hdr10-opt / no-dhdr10-opt / no-idr-recovery-sei / analysis-reuse-level=0 / analysis-save-reuse-level=0 / analysis-load-reuse-level=0 / scale-factor=0 / refine-intra=0 / refine-inter=0 / refine-mv=1 / refine-ctu-distortion=0 / no-limit-sao / ctu-info=0 / no-lowpass-dct / refine-analysis-type=0 / copy-pic=1 / max-ausize-factor=1.0 / no-dynamic-refine / no-single-sei / no-hevc-aq / no-svt / no-field / qp-adaptation-range=1.00 / scenecut-aware-qp=0conformance-window-offsets / right=0 / bottom=0 / decoder-max-rate=0 / no-vbv-live-multi-pass
Language : English
Default : Yes
Forced : No
Color range : Limited
Color primaries : BT.709
Transfer characteristics : BT.709
Matrix coefficients : BT.709
Duration_Source : General_Duration

Audio #1
ID : 2
Format : AC-3
Format/Info : Audio Coding 3
Commercial name : Dolby Digital
Codec ID : A_AC3
Duration : 1 h 1 min
Bit rate mode : Constant
Bit rate : 448 kb/s
Channel(s) : 6 channels
Channel layout : L R C LFE Ls Rs
Sampling rate : 48.0 kHz
Frame rate : 31.250 FPS (1536 SPF)
Compression mode : Lossy
Stream size : 198 MiB (13%)
Title : HDRezka Studio
Language : Russian
Service kind : Complete Main
Default : Yes
Forced : No
Duration_Source : General_Duration

Audio #2
ID : 3
Format : AC-3
Format/Info : Audio Coding 3
Commercial name : Dolby Digital
Codec ID : A_AC3
Duration : 1 h 1 min
Bit rate mode : Constant
Bit rate : 448 kb/s
Channel(s) : 6 channels
Channel layout : L R C LFE Ls Rs
Sampling rate : 48.0 kHz
Frame rate : 31.250 FPS (1536 SPF)
Compression mode : Lossy
Stream size : 198 MiB (13%)
Title : DUB
Language : Russian
Service kind : Complete Main
Default : No
Forced : No
Duration_Source : General_Duration

Audio #3
ID : 4
Format : AC-3
Format/Info : Audio Coding 3
Commercial name : Dolby Digital
Codec ID : A_AC3
Duration : 1 h 1 min
Bit rate mode : Constant
Bit rate : 384 kb/s
Channel(s) : 6 channels
Channel layout : L R C LFE Ls Rs
Sampling rate : 48.0 kHz
Frame rate : 31.250 FPS (1536 SPF)
Compression mode : Lossy
Delay relative to video : 20 ms
Stream size : 169 MiB (11%)
Title : DniproFilm
Language : Ukrainian
Service kind : Complete Main
Default : No
Forced : No
Duration_Source : General_Duration

Audio #4
ID : 5
Format : E-AC-3 JOC
Format/Info : Enhanced AC-3 with Joint Object Coding
Commercial name : Dolby Digital Plus with Dolby Atmos
Codec ID : A_EAC3
Duration : 1 h 1 min
Bit rate mode : Constant
Bit rate : 768 kb/s
Channel(s) : 6 channels
Channel layout : L R C LFE Ls Rs
Sampling rate : 48.0 kHz
Frame rate : 31.250 FPS (1536 SPF)
Compression mode : Lossy
Stream size : 339 MiB (22%)
Title : Eng
Language : English
Service kind : Complete Main
Default : No
Forced : No
Complexity index : 16
Number of dynamic objects : 15
Bed channel count : 1 channel
Bed channel configuration : LFE
Duration_Source : General_Duration

Text #1
ID : 6
Format : UTF-8
Codec ID : S_TEXT/UTF8
Codec ID/Info : UTF-8 Plain Text
Title : English
Language : English
Default : No
Forced : No
Statistics Tags Issue : mkvmerge v61.0.0 ('So') 64-bit 2021-09-25 00:59:04 / mkvmerge v6.1.0 ('Old Devil') built on Mar 2 2013 14:32:37 2021-09-26 08:15:42
FromStats_BitRate : 50
FromStats_Duration : 00:58:26.799000000
FromStats_FrameCount : 644
FromStats_StreamSize : 21938

Text #2
ID : 7
Format : UTF-8
Codec ID : S_TEXT/UTF8
Codec ID/Info : UTF-8 Plain Text
Title : Russian
Language : Russian
Default : No
Forced : No
Statistics Tags Issue : mkvmerge v61.0.0 ('So') 64-bit 2021-09-25 00:59:04 / mkvmerge v6.1.0 ('Old Devil') built on Mar 2 2013 14:32:37 2021-09-26 08:15:42
FromStats_BitRate : 75
FromStats_Duration : 01:00:30.923000000
FromStats_FrameCount : 632
FromStats_StreamSize : 34264

Text #3
ID : 8
Format : UTF-8
Codec ID : S_TEXT/UTF8
Codec ID/Info : UTF-8 Plain Text
Title : Ukrainian
Language : Ukrainian
Default : No
Forced : No
Statistics Tags Issue : mkvmerge v61.0.0 ('So') 64-bit 2021-09-25 00:59:04 / mkvmerge v6.1.0 ('Old Devil') built on Mar 2 2013 14:32:37 2021-09-26 08:15:42
FromStats_BitRate : 77
FromStats_Duration : 01:00:30.923000000
FromStats_FrameCount : 643
FromStats_StreamSize : 35378

Text #4
ID : 9
Format : UTF-8
Codec ID : S_TEXT/UTF8
Codec ID/Info : UTF-8 Plain Text
Title : rus (forced)
Language : Russian
Default : Yes
Forced : No

Text #5
ID : 10
Format : UTF-8
Codec ID : S_TEXT/UTF8
Codec ID/Info : UTF-8 Plain Text
Title : ukr (forced)
Language : Ukrainian
Default : No
Forced : No

Раздача ведётся путём добавления новых серий, при каждом добавлении создаётся новый торрент. Чтобы начать докачку новой серии, пользователям необходимо сделать следующее:
- Остановить скачивание.
- Удалить старый торрент у себя из клиента (старые серии удалять не надо).
- Скачать новый торрент и запустить его у себя в клиенте вместо старого, при этом указать клиенту путь в старую папку куда и должно происходить скачивание новых серий.
Ваш клиент при этом должен произвести хеширование (проверку) старой папки (если не производит сам - помогите ему сделать это), и будет докачивать только те серии которых у вас ещё нет. Старые серии при этом не удаляются, а продолжают раздаваться!
pb.wtf



Скачать Основание через торрент https://i7.imageban.ru/out/2021/09/25/cf705d02925cf74615badaa4dba977c3.jpg Скачать, смотреть онлайн Основание бесплантно в хорошем качестве Описание: Сериал основан на одноимённой серии романов Айзека Азимова. В далёком будущем люди расселились за пределами Земли. Однако ... 9.3 10 13
Торрент: Зарегистрирован [2021-11-21 12:24] · скачан: 21 раз
Статус: √ проверено
Размер: 13.7 GB
Как cкачать? Как скачать Основание через торрент | UTorrent

% Раздел Тема Автор DL S | L
Зарубежные сериалы [ 46.93 GB ] Основание / Foundation / Сезон: 1 / Серии: 1-10 из 10 [2021 WEB-DL 1080p] MVO [AlexFilm] bober100 Скачать
2 | 2
Зарубежные сериалы [ 45.49 GB ] Основание / Foundation / Сезон: 1 / Серии: 1-10 из 10 [2021 WEB-DL 1080p] DUB [Невафильм / Apple TV bober100 Скачать
5 | 4
Зарубежные сериалы [ 9.39 GB ] Основание / Foundation / Сезон: 1 / Серии: 1-10 из 10 [2021 WEB-DLRip] MVO [AlexFilm] bober100 Скачать
4 | 2
Зарубежные сериалы [ 104.64 GB ] Основание / Foundation / Сезон: 1 / Серии: 1-10 из 10 [2021 UHD WEB-DL 2160p] DUB [Невафильм / Apple TV bober100 Скачать
5 | 3
Зарубежные сериалы [ 30.28 GB ] Основание / Foundation / Сезон: 1 / Серии: 1-7 из 10 [2021 WEB-DL 1080p] MVO [LostFilm] bober100 Скачать
3 | 1
Зарубежные сериалы [ 8.27 GB ] Основание / Foundation / Сезон: 1 / Серии: 1-10 из 10 [2021 WEB-DLRip] DUB [Невафильм / Apple TV bober100 Скачать
19 | 4
Зарубежные сериалы [ 7.39 GB ] Основание / Foundation / Сезон: 1 / Серии: 1-9 из 10 [2021 WEB-DLRip] MVO [LostFilm] bober100 Скачать
3 | 2

28-11-2019 20:33  

Отключить всю рекламу на сайте

    Дорогой пользователь! Огромная просьба, поблагодарите релизера, оцените раздачу и оставьте свои комментарий, если Вы скачали Основание через торрент бесплатно!
    Комментировать посты могут только пользователи прошедшие не сложную регистрацию
    Показать сообщения:    

    Основание через торрент
    Скачать бесплатно Основание
    Основание скачать торрент
    Основание смотреть онлайн
    Cкачать фильм Основание бесплатно
    Основание скачать торрент в хорошем качестве
    Основание смотреть онлайн бесплатно в хорошем качестве


    Вы не можете начинать темы
    Вы не можете отвечать на сообщения
    Вы не можете редактировать свои сообщения
    Вы не можете удалять свои сообщения
    Вы не можете голосовать в опросах
    Вы не можете прикреплять файлы к сообщениям
    Вы можете скачивать файлы