Всегда рабочее зеркало без VPN и Proxy просто перед .vidak.icu напиши любое слово или цифру, Пример http://gmkd.vidak.icu

MVO

Лицензия

1 сезон

1

1 сезон

iTunes

1 сезон

13

1 сезон

Deluxe

pack

Рекомендуем

Repack

30

ВАЖНО

RePack

MK11

RePack

jed

RePack

fifa19

RePack

RDR2

RePack

NEED FOR SPEED™ PAYBACK

Кинопоиск HD

6 сезон

 Острые козырьки 6 сезон

Все сериалы

все сериалы на PB.wtf

RePack

FAR CRY 5
  
Magnet ссылка

Золушка / Cinderella (Кэй Кэннон) [2021, Мюзикл, фэнтези, мелодрама, комедия, WEB-DL 1080p] MVO [HDRezka Studio] pb.wtf

Золушка через торрент pb.wtf

Размер: 7.67 GB | Добавлен: 9 мес. назад | Торрент скачан:80 раз
Смотреть онлайн Золушка | Скачать    Ребята, помогите собрать деньги на оплату серверов!!!

28-09-2021 05:36 Золушка Скачать торрент  

Золушка | Cinderella
Год выпуска: 2021
Страна: США, Великобритания
Студия: Columbia Pictures Corporation, DMG Entertainment, Fulwell 73, Sony Pictures Animation, Sony Pictures Entertainment (SPE)
Жанр: Мюзикл, фэнтези, мелодрама, комедия
Продолжительность: 01:52:30
Перевод: Профессиональный (многоголосый) | HDRezka Studio
Субтитры: Русские (форсированные (HDRezka), полные (Amazon)), английские

Режиссер: Кэй Кэннон

rating

В ролях: Камила Кабейо, Николас Голицын, Идина Мензел, Пирс Броснан, Минни Драйвер, Tallulah Greive, Билли Портер, Мэдди Байллио, Шарлотта Спенсер, Джеймс Корден

Описание: Новый смелый взгляд на традиционную историю о Золушке. Главная героиня - амбициозная девушка, чьи мечты намного больше, чем позволяет мир, но с помощью своего потрясающего помощника Джи она способна проявить настойчивость и воплотить свои мечты в реальность.

Качество: WEB-DL 1080p
Формат: MKV

Видео: 1920x800 (2,40:1), 23.976 fps, MPEG-4 AVC ~ 8 669 Kbps avg, 0.235 bit/pixel
Аудио: AC3, 48 kHz, 6 ch, ~448.00 kbps avg | русский | HDRezka Studio |
Аудио: E-AC3, 48 kHz, 6 ch, ~640.00 kbps avg | английский |
скриншот  скриншот  скриншот  скриншот  скриншот  

Общее
Уникальный идентификатор : 196259866195337906145267806171692031096 (0x93A6467B495ADBB49BDF13532F405C78)
Полное имя : Cinderella.2021.1080p.AMZN.WEBDL.MegaPeer.mkv
Формат : Matroska
Версия формата : Version 4
Размер файла : 7,67 Гбайт
Продолжительность : 1 ч. 52 м.
Общий поток : 9 760 Кбит/сек
Название фильма : Золушка / Cinderella (2021)
Дата кодирования : UTC 2021-09-27 19:21:50
Программа кодирования : mkvmerge v15.0.0 ('Duel with the Devil') 64-bit
Библиотека кодирования : libebml v1.3.5 + libmatroska v1.4.5
Обложка : Yes
Attachments : cover.jpg

Видео
Идентификатор : 1
Формат : AVC
Формат/Информация : Advanced Video Codec
Профиль формата : [email protected]
Настройки формата : CABAC / 4 Ref Frames
Параметр CABAC формата : Да
Параметр RefFrames формата : 4 кадра
Идентификатор кодека : V_MPEG4/ISO/AVC
Продолжительность : 1 ч. 52 м.
Вид битрейта : Постоянный
Битрейт : 8 669 Кбит/сек
Номинальный битрейт : 10 000 Кбит/сек
Ширина : 1 920 пикселей
Высота : 800 пикселей
Соотношение сторон : 2,40:1
Режим частоты кадров : Постоянный
Частота кадров : 23,976 (24000/1001) кадра/сек
Цветовое пространство : YUV
Субдискретизация насыщенности : 4:2:0
Битовая глубина : 8 бит
Тип развёртки : Прогрессивная
Бит/(Пиксели*Кадры) : 0.235
Размер потока : 6,81 Гбайт (89%)
Язык : English
Default : Да
Forced : Нет
Цветовой диапазон : Limited
Основные цвета : BT.709
Характеристики трансфера : BT.709
Коэффициенты матрицы : BT.709

Аудио #1
Идентификатор : 2
Формат : AC-3
Формат/Информация : Audio Coding 3
Коммерческое название : Dolby Digital
Идентификатор кодека : A_AC3
Продолжительность : 1 ч. 52 м.
Вид битрейта : Постоянный
Битрейт : 448 Кбит/сек
Каналы : 6 каналов
Channel layout : L R C LFE Ls Rs
Частота : 48,0 КГц
Частота кадров : 31,250 кадров/сек (1536 SPF)
Метод сжатия : С потерями
Размер потока : 360 Мбайт (5%)
Заголовок : MVO | HDRezka Studio
Язык : Russian
Service kind : Complete Main
Default : Да
Forced : Нет

Аудио #2
Идентификатор : 3
Формат : E-AC-3
Формат/Информация : Enhanced AC-3
Коммерческое название : Dolby Digital Plus
Идентификатор кодека : A_EAC3
Продолжительность : 1 ч. 52 м.
Вид битрейта : Постоянный
Битрейт : 640 Кбит/сек
Каналы : 6 каналов
Channel layout : L R C LFE Ls Rs
Частота : 48,0 КГц
Частота кадров : 31,250 кадров/сек (1536 SPF)
Метод сжатия : С потерями
Размер потока : 515 Мбайт (7%)
Заголовок : English
Язык : English
Service kind : Complete Main
Default : Нет
Forced : Нет

Текст #1
Идентификатор : 4
Формат : UTF-8
Идентификатор кодека : S_TEXT/UTF8
Идентификатор кодека/Информация : UTF-8 Plain Text
Продолжительность : 1 ч. 44 м.
Битрейт : 34 бит/сек
Count of elements : 645
Размер потока : 26,2 Кбайт (0%)
Заголовок : Forced (HDReazka)
Язык : Russian
Default : Да
Forced : Нет

Текст #2
Идентификатор : 5
Формат : UTF-8
Идентификатор кодека : S_TEXT/UTF8
Идентификатор кодека/Информация : UTF-8 Plain Text
Продолжительность : 1 ч. 51 м.
Битрейт : 99 бит/сек
Count of elements : 1692
Размер потока : 81,7 Кбайт (0%)
Заголовок : Full (Amazon)
Язык : Russian
Default : Нет
Forced : Нет

Текст #3
Идентификатор : 6
Формат : UTF-8
Идентификатор кодека : S_TEXT/UTF8
Идентификатор кодека/Информация : UTF-8 Plain Text
Продолжительность : 1 ч. 52 м.
Битрейт : 85 бит/сек
Count of elements : 2352
Размер потока : 70,6 Кбайт (0%)
Заголовок : SDH
Язык : English
Default : Нет
Forced : Нет

Текст #4
Идентификатор : 7
Формат : UTF-8
Идентификатор кодека : S_TEXT/UTF8
Идентификатор кодека/Информация : UTF-8 Plain Text
Продолжительность : 1 ч. 51 м.
Битрейт : 51 бит/сек
Count of elements : 1722
Размер потока : 42,5 Кбайт (0%)
Заголовок : Full
Язык : English
Default : Нет
Forced : Нет

pb.wtf



Скачать Золушка через торрент https://i115.fastpic.org/big/2021/0927/c3/6d4f61a999a7822890345b86f4bd9ec3.jpg Скачать, смотреть онлайн Золушка бесплантно в хорошем качестве Описание: Новый смелый взгляд на традиционную историю о Золушке. Главная героиня - амбициозная девушка, чьи мечты намного больше, чем ... 10 10 2
Торрент: Зарегистрирован [2021-09-28 05:36] · скачан: 80 раз
Статус: √ проверено
Размер: 7.67 GB
Как cкачать? Как скачать Золушка через торрент | UTorrent

% Раздел Тема Автор DL S | L
Фильмы 2021 [DVDrip, WEB-DLRip, HDrip] (DUB, MVO) [ 1.46 GB ] Золушка / Cinderella [2021 Мюзикл BDRip] MVO [HDRezka Studio] bober100 Скачать
1 | 0
Фильмы 2021 [DVDrip, WEB-DLRip, HDrip] (DUB, MVO) [ 2.2 GB ] Золушка / Cinderella [2021 Мюзикл BDRip] MVO [HDRezka Studio] bober100 Скачать
2 | 0
Мультфильмы (48-60 fps) [ 2.84 GB ] Золушка и заколдованный принц / Cinderella and the Secret Prince [2018 Мультфильм WEB-DLRip 720p / 60 FPS ] от R.G. HD-Films slaventi-69 Скачать
1 | 0
Фильмы 2021 [DVDrip, WEB-DLRip, HDrip] (DUB, MVO) [ 1.57 GB ] Три орешка для Золушки / Tre nøtter til Askepott / Three Wishes for Cinderella [2021 WEB-DLRip-AVC] DUB [КиноПоиск HD] от ExKinoRay Lithuania Скачать
2 | 0
Фильмы с авторской озвучкой [ 4.04 GB ] Золушка 2000 / Cinderella 2000 [1977 эротика BDRip 720p Авторский ] от ExKinoRay dumbia Скачать
1 | 0
T Фильмы 2018 [DVDrip, WEB-DLRip, HDrip] (DUB, MVO) [ 1.91 GB ] Совсем не Золушка / Not Cinderella's Type [2018 Мело WEB-DLRip-AVC] [MVO] от MediaBit Lithuania Скачать
1 | 0
Фильмы 2019-2020 [DVDrip, WEB-DLRip, HDrip] (DUB, MVO) [ 1.89 GB ] Диджей Золушка / Cinderela Pop [2019 Мело WEB-DLRip-AVC] [ ] от MediaBit Lithuania Скачать
1 | 0

28-11-2019 20:33  

Отключить всю рекламу на сайте

29-09-2021 16:19 Золушка Скачать торрент  

Очередное толерантное дерьмо..pb.wtf



29-09-2021 17:34 Золушка Скачать торрент  

Ну не дожали.... Надо было сделать золушку негром геем и побольше сцен где они там с принцем сосутся, признаются друг другу в любви и тдpb.wtf



15-06-2022 19:06 Золушка Скачать торрент  

Золушка просто обязана и должна быть негром - трансом настоящей евро-американо тварью неведомой селе зверюгойpb.wtf



    Дорогой пользователь! Огромная просьба, поблагодарите релизера, оцените раздачу и оставьте свои комментарий, если Вы скачали Золушка через торрент бесплатно!
    Комментировать посты могут только пользователи прошедшие не сложную регистрацию
    Показать сообщения:    

    Золушка через торрент
    Скачать бесплатно Золушка
    Золушка скачать торрент
    Золушка смотреть онлайн
    Cкачать фильм Золушка бесплатно
    Золушка скачать торрент в хорошем качестве
    Золушка смотреть онлайн бесплатно в хорошем качестве


    Вы не можете начинать темы
    Вы не можете отвечать на сообщения
    Вы не можете редактировать свои сообщения
    Вы не можете удалять свои сообщения
    Вы не можете голосовать в опросах
    Вы не можете прикреплять файлы к сообщениям
    Вы можете скачивать файлы