Всегда рабочее зеркало без VPN и Proxy просто перед .vidak.icu напиши любое слово или цифру, Пример http://cxxf.vidak.icu

MVO

2 сезон

1 сезон

1

1 сезон

iTunes

2 сезон

13

1 сезон

Распродажа

pack

Рекомендуем

Пиратка

30

ВАЖНО

RePack

MK11

RePack

jed

RePack

fifa19

RePack

RDR2

RePack

NEED FOR SPEED™ PAYBACK

Кинопоиск HD

6 сезон

 Острые козырьки 6 сезон

Все сериалы

все сериалы на PB.wtf

RePack

FAR CRY 5

Anonymous, нам критически не хватает 5601 руб. на оплату серверов и переферии за Апрель, помоги нам пожалуйста, вся надежда только на тебя. В благодарность мы отключим тебе всю рекламу на сайте!

×
  
Magnet ссылка

Порок на экспорт / Eastern Promises (Дэвид Кроненберг) [2007 г., Триллер, драма, криминал, детектив, BDRip-AVC, 60 FPS, Дубляж] pb.wtf

Порок на экспорт через торрент pb.wtf

Размер: 2.35 GB | Добавлен: 7 мес. назад | Торрент скачан:7 раз
Смотреть онлайн Порок на экспорт | Скачать    Ребята, помогите собрать деньги на оплату серверов!!!

28-09-2021 08:37 Порок на экспорт Скачать торрент  

Порок на экспорт / Eastern Promises
Год выпуска: 2007
Страна: Великобритания, Канада, BBC Films, Animated Extras, Astral Media Inc.
Жанр: Триллер, драма, криминал, детектив
Продолжительность: 01:40:33
Перевод: Дубляж
Субтитры: русские, английские

Режиссер: Дэвид Кроненберг

Бюджет: £ 25 000 000
Премьера в мире: 8 сентября 2007

rating

В ролях: Наоми Уоттс, Вигго Мортенсен, Венсан Кассель, Шинейд Кьюсак, Армин Мюллер-Шталь, Ежи Сколимовский, Сара-Джинн Лабросс, Дональд Самптер, Майкл Сарн, Юсуф Алтин

Описание: Наоми Уоттс, Вигго Мортенсен, Венсан Кассель, Шинейд Кьюсак, Армин Мюллер-Шталь, Ежи Сколимовский, Сара-Джинн Лабросс, Дональд Самптер, Майкл Сарн, Юсуф Алтин
О фильме: Накануне Рождества в Лондоне при родах умирает молодая русская женщина, совсем юная, почти подросток. На руках акушерки Анны остается младенец и дневник, который она нашла в вещах девушки. Анна ужасается ее истории жизни и начинает собственное расследование, которое прямо ведет в логово русской мафии. Так она знакомится с Николаем, который помогает ей разобраться в этой запутанной истории. Анна и не догадывается, что ее новый знакомый — жестокий и таинственный киллер, который принадлежит одной из русских группировок Лондона, а факты, описанные в дневнике, компрометируют его босса. Завязывается еще одна ужасающая цепочка любви и убийств, обмана и возмездия…

Качество: BDRip-AVC 60 FPS
Формат: MKV
Видео кодек: H.264
Аудио кодек: AAC
Видео: 1024x552 (1,85:1), 3 342 kbps, 59,940 fps, 0.094 bpp
Аудио#1: AAC LC SBR / 48 kHz / 144 kbps / 2 ch / Дубляж

Общее
Уникальный идентификатор : 197509477150109226528157260025160464168 (0x9496F10EF32792A1B26E0AE9658EF728)
Полное имя : Z:\Раздача\Порок на Экспорт.2007.mkv
Формат : Matroska
Версия формата : Version 4
Размер файла : 2,35 Гбайт
Продолжительность : 1 ч. 40 м.
Общий поток : 3 342 Кбит/сек
Название фильма : Порок на Экспорт.2007.mkv
Дата кодирования : UTC 2021-01-04 07:53:43
Программа кодирования : mkvmerge v7.2.0 ('On Every Street') 32bit built on Sep 13 2014 15:42:11
Библиотека кодирования : libebml v1.3.0 + libmatroska v1.4.1

Видео
Идентификатор : 1
Формат : AVC
Формат/Информация : Advanced Video Codec
Профиль формата : High@L4.1
Настройки формата : CABAC / 8 Ref Frames
Параметр CABAC формата : Да
Параметр RefFrames формата : 8 кадров
Идентификатор кодека : V_MPEG4/ISO/AVC
Продолжительность : 1 ч. 40 м.
Битрейт : 3 342 Кбит/сек
Ширина : 1 024 пикселя
Высота : 552 пикселя
Соотношение сторон : 1,85:1
Режим частоты кадров : Постоянный
Частота кадров : 59,940 кадров/сек
Цветовое пространство : YUV
Субдискретизация насыщенности : 4:2:0
Битовая глубина : 8 бит
Тип развёртки : Прогрессивная
Бит/(Пиксели*Кадры) : 0.094
Размер потока : 2,24 Гбайт (96%)
Библиотека кодирования : x264 core 146 r2538 121396c
Настройки программы : cabac=1 / ref=8 / deblock=1:0:0 / analyse=0x3:0x113 / me=umh / subme=9 / psy=1 / psy_rd=1.00:0.10 / mixed_ref=1 / me_range=32 / chroma_me=1 / trellis=2 / 8x8dct=1 / cqm=0 / deadzone=21,11 / fast_pskip=0 / chroma_qp_offset=-3 / threads=6 / lookahead_threads=1 / sliced_threads=0 / nr=0 / decimate=1 / interlaced=0 / bluray_compat=0 / constrained_intra=0 / bframes=16 / b_pyramid=2 / b_adapt=2 / b_bias=0 / direct=3 / weightb=1 / open_gop=0 / weightp=2 / keyint=250 / keyint_min=25 / scenecut=40 / intra_refresh=0 / rc_lookahead=40 / rc=2pass / mbtree=0 / bitrate=3200 / ratetol=1.0 / qcomp=0.60 / qpmin=0 / qpmax=69 / qpstep=4 / cplxblur=20.0 / qblur=0.5 / vbv_maxrate=14000 / vbv_bufsize=14000 / nal_hrd=none / filler=0 / ip_ratio=1.40 / pb_ratio=1.30 / aq=1:1.00
Язык : English
Default : Да
Forced : Нет

Аудио
Идентификатор : 2
Формат : AAC LC SBR
Формат/Информация : Advanced Audio Codec Low Complexity with Spectral Band Replication
Коммерческое название : HE-AAC
Настройки формата : Explicit
Идентификатор кодека : A_AAC-2
Продолжительность : 1 ч. 40 м.
Битрейт : 144 Кбит/сек
Каналы : 2 канала
Channel layout : L R
Частота : 48,0 КГц
Частота кадров : 23,438 кадра/сек (2048 SPF)
Метод сжатия : С потерями
Размер потока : 105 Мбайт (4%)
Default : Да
Forced : Нет

Текст #1
Идентификатор : 3
Формат : UTF-8
Идентификатор кодека : S_TEXT/UTF8
Идентификатор кодека/Информация : UTF-8 Plain Text
Продолжительность : 1 ч. 36 м.
Битрейт : 68 бит/сек
Count of elements : 944
Размер потока : 48,2 Кбайт (0%)
Заголовок : Russkie
Язык : Russian
Default : Нет
Forced : Нет

Текст #2
Идентификатор : 4
Формат : UTF-8
Идентификатор кодека : S_TEXT/UTF8
Идентификатор кодека/Информация : UTF-8 Plain Text
Продолжительность : 1 ч. 33 м.
Битрейт : 4 бит/сек
Count of elements : 148
Размер потока : 3,09 Кбайт (0%)
Заголовок : forsed
Язык : English
Default : Нет
Forced : Нет

Текст #3
Идентификатор : 5
Формат : UTF-8
Идентификатор кодека : S_TEXT/UTF8
Идентификатор кодека/Информация : UTF-8 Plain Text
Продолжительность : 1 ч. 34 м.
Битрейт : 40 бит/сек
Count of elements : 961
Размер потока : 28,1 Кбайт (0%)
Заголовок : Rip by _paravoz_
Язык : English
Default : Нет
Forced : Нет

Меню
00:00:00.000 : en:Pronounced Dead (Main Titles)
00:04:45.118 : en:Surviving Diary
00:08:12.783 : en:Trans-Siberian
00:14:39.378 : en:Show Some Respect
00:21:33.917 : en:Only a Driver
00:29:05.785 : en:Professionally Processed
00:32:26.527 : en:Staying Alive
00:37:51.894 : en:Ordinary People
00:43:23.934 : en:Spreading Lies
00:47:28.679 : en:An Exchange
00:54:33.353 : en:Just Passing
00:56:50.824 : en:For My Brother
01:02:38.588 : en:Offered Stars
01:09:58.319 : en:Living in the Zone
01:14:17.077 : en:To the Slaughter
01:20:57.561 : en:Exile or Death
01:25:19.948 : en:Drawing Blood
01:27:28.159 : en:Becoming King
01:33:57.298 : en:A Better Life
01:35:33.936 : en:End Titles
01:40:33.152 : en:

pb.wtf



Скачать Порок на экспорт через торрент https://pic1.kartinco.top/new/img/2021-09/28/et6ka3pajvch9r48n9tlno8ho.jpg Скачать, смотреть онлайн Порок на экспорт бесплантно в хорошем качестве Описание: Наоми Уоттс, Вигго Мортенсен, Венсан Кассель, Шинейд Кьюсак, Армин Мюллер-Шталь, Ежи Сколимовский, Сара-Джинн Лабросс, Дональд ... 10 10 1
Торрент: Зарегистрирован [2021-09-28 08:37] · скачан: 7 раз
Статус: √ проверено
Размер: 2.35 GB
Как cкачать? Как скачать Порок на экспорт через торрент | UTorrent

% Раздел Тема Автор DL S | L
Фильмы с авторской озвучкой [ 1.46 GB ] Порок на эк / Eastern Promises [2007 BDRip] [AVO] killermax2013 Скачать
1 | 0
Арт-хаус и авторское кино [ 7.96 GB ] Порок на эк / Eastern Promises [2007 BDRip DUB] VintMosina Скачать
1 | 0
Арт-хаус и авторское кино [ 7.96 GB ] Порок на эк / Eastern Promises [2007 BDRip 1080p Дублированый одноголосый авторский ] CrazyPatrik Скачать
1 | 0
Арт-хаус и авторское кино [ 1.37 GB ] Порок на эк / Eastern Promises [2007 DVDRip лицензия] 19stalin91 Скачать
1 | 0

28-11-2019 20:33  

Отключить всю рекламу на сайте

19-12-2021 04:35 Порок на экспорт Скачать торрент  

Раздача будет остановлена 31 декабря. Если нужно будет востановить раздачу, пишит сюда. Заходить буду один раз в неделю. (1)pb.wtf



    Дорогой пользователь! Огромная просьба, поблагодарите релизера, оцените раздачу и оставьте свои комментарий, если Вы скачали Порок на экспорт через торрент бесплатно!
    Комментировать посты могут только пользователи прошедшие не сложную регистрацию
    Показать сообщения:    

    Порок на экспорт через торрент
    Скачать бесплатно Порок на экспорт
    Порок на экспорт скачать торрент
    Порок на экспорт смотреть онлайн
    Cкачать фильм Порок на экспорт бесплатно
    Порок на экспорт скачать торрент в хорошем качестве
    Порок на экспорт смотреть онлайн бесплатно в хорошем качестве


    Вы не можете начинать темы
    Вы не можете отвечать на сообщения
    Вы не можете редактировать свои сообщения
    Вы не можете удалять свои сообщения
    Вы не можете голосовать в опросах
    Вы не можете прикреплять файлы к сообщениям
    Вы можете скачивать файлы