Всегда рабочее зеркало без VPN и Proxy просто перед .vidak.icu напиши любое слово или цифру, Пример http://r6gd.vidak.icu

MVO

Лицензия

1 сезон

1

1 сезон

iTunes

1 сезон

13

1 сезон

Deluxe

pack

Рекомендуем

Пиратка

30

ВАЖНО

RePack

MK11

RePack

jed

RePack

fifa19

RePack

RDR2

RePack

NEED FOR SPEED™ PAYBACK

Кинопоиск HD

6 сезон

 Острые козырьки 6 сезон

Все сериалы

все сериалы на PB.wtf

RePack

FAR CRY 5
  
Magnet ссылка

Тихое место 2 / A Quiet Place Part II (Джон Красински) [2021, Ужасы, фантастика, триллер, драма, UHD BDRemux 2160p, (Dolby Vision TV)] DUB [Лицензия] pb.wtf

Тихое место 2 через торрент pb.wtf

Размер: 42.75 GB | Добавлен: 9 мес. назад | Торрент скачан:23 раза
Смотреть онлайн Тихое место 2 | Скачать    Ребята, помогите собрать деньги на оплату серверов!!!

28-09-2021 10:44 Тихое место 2 Скачать торрент  

Тихое место 2 | A Quiet Place Part II
Год выпуска: 2021
Страна: США
Выпущено: Buffalo FilmWorks, Paramount Pictures, Platinum Dunes, Sunday Night Productions
Жанр: Ужасы, фантастика, триллер, драма
Продолжительность: 01:37:00
Перевод: Дублированный | Лицензия
Субтитры: Русские (Forced)

Режиссер: Джон Красински

rating

В ролях: Эмили Блант, Джон Красински, Милли Симмондс, Ноа Джуп, Киллиан Мёрфи, Джимон Хонсу, Окете Онаодован, Скут МакНэйри, Захари Голингер, Блейк ДеЛонг

Описание: 474 дня прошло после нападения на Землю охотящихся на звук существ, семья Эбботт продолжает бороться за жизнь в полной тишине. Столкнувшись со смертельной угрозой в собственном доме, они вынуждены отправиться во внешний мир, где находят убежище и старого знакомого семьи. Поймав радиосигнал, Реган вычисляет место предполагаемой колонии выживших и решает во что бы то ни стало её разыскать.

Качество: UHD BDRemux 2160p | Dolby Vision TV
Формат: MP4

Видео: 3840x2160 at 23.976 fps, MPEG-H HEVC HDR, Dolby Vision Video, ~ 58600 kbps avg
Аудио: 48 kHz, AC3, 5.1, 640 Kbps | Дублированный | RUS |
скриншот  скриншот  скриншот  скриншот  скриншот  

General
Complete name : E:VideoA.Quiet.Place.Part.II.2020.Lic.BDREMUX.2160p.HDR.DV_TV.seleZenA.Quiet.Place.Part.II.2020.Lic.BDREMUX.2160p.HDR.DV_TV.seleZen.mp4
Format : MPEG-4
Format profile : Base Media / Version 2
Codec ID : mp42 (mp42/dby1/isom)
File size : 42.8 GiB
Duration : 1 h 37 min
Overall bit rate : 63.1 Mb/s
Encoded date : UTC 2021-09-27 10:01:16
Tagged date : UTC 2021-09-27 10:01:16

Video #1
ID : 1
Format : HEVC
Format/Info : High Efficiency Video Coding
Format profile : Main 10@L5.1@High
HDR format : SMPTE ST 2086, HDR10 compatible
Codec ID : hev1
Codec ID/Info : High Efficiency Video Coding
Duration : 1 h 37 min
Bit rate : 58.6 Mb/s
Width : 3 840 pixels
Height : 2 160 pixels
Display aspect ratio : 16:9
Frame rate mode : Constant
Frame rate : 23.976 (24000/1001) FPS
Color space : YUV
Chroma subsampling : 4:2:0 (Type 2)
Bit depth : 10 bits
Bits/(Pixel*Frame) : 0.294
Stream size : 39.7 GiB (93%)
Default : Yes
Alternate group : 1
Encoded date : UTC 2021-09-27 10:01:16
Tagged date : UTC 2021-09-27 10:01:16
Color range : Limited
Color primaries : BT.2020
Transfer characteristics : PQ
Matrix coefficients : BT.2020 non-constant
Mastering display color pri : Display P3
Mastering display luminance : min: 0.0050 cd/m2, max: 4000 cd/m2
Maximum Content Light Level : 1000 cd/m2
Maximum Frame-Average Light : 216 cd/m2
Codec configuration box : hvcC

Video #2
ID : 2
Format : HEVC
Format/Info : High Efficiency Video Coding
Format profile : Main 10@L5.1@High
HDR format : Dolby Vision, Version 1.0, dvhe.07.06, EL+RPU, Blu-ray compatible / SMPTE ST 2086, HDR10 compatible
Codec ID : hev1
Codec ID/Info : High Efficiency Video Coding
Duration : 1 h 37 min
Bit rate : 3 891 kb/s
Width : 1 920 pixels
Height : 1 080 pixels
Display aspect ratio : 16:9
Frame rate mode : Constant
Frame rate : 23.976 (24000/1001) FPS
Color space : YUV
Chroma subsampling : 4:2:0 (Type 2)
Bit depth : 10 bits
Bits/(Pixel*Frame) : 0.078
Stream size : 2.64 GiB (6%)
Default : No
Alternate group : 1
Encoded date : UTC 2021-09-27 10:01:16
Tagged date : UTC 2021-09-27 10:01:16
Color range : Limited
Color primaries : BT.2020
Transfer characteristics : PQ
Matrix coefficients : BT.2020 non-constant
Mastering display color pri : Display P3
Mastering display luminance : min: 0.0050 cd/m2, max: 4000 cd/m2
Codec configuration box : hvcC+dvcC

Audio
ID : 3
Format : AC-3
Format/Info : Audio Coding 3
Commercial name : Dolby Digital
Codec ID : ac-3
Duration : 1 h 37 min
Bit rate mode : Constant
Bit rate : 640 kb/s
Channel(s) : 6 channels
Channel layout : L R C LFE Ls Rs
Sampling rate : 48.0 kHz
Frame rate : 31.250 FPS (1536 SPF)
Compression mode : Lossy
Stream size : 444 MiB (1%)
Language : Russian
Service kind : Complete Main
Default : Yes
Alternate group : 2
Encoded date : UTC 2021-09-27 10:01:16
Tagged date : UTC 2021-09-27 10:01:16

pb.wtf



Скачать Тихое место 2 через торрент https://a.radikal.ru/a34/2107/0b/9b5cb087577b.jpg Скачать, смотреть онлайн Тихое место 2 бесплантно в хорошем качестве Описание: 474 дня прошло после нападения на Землю охотящихся на звук существ, семья Эбботт продолжает бороться за жизнь в полной тишине. ... 7 10 3
Торрент: Зарегистрирован [2021-09-28 10:44] · скачан: 23 раз
Статус: √ проверено
Размер: 42.75 GB
Как cкачать? Как скачать Тихое место 2 через торрент | UTorrent

% Раздел Тема Автор DL S | L
Фильмы [HD 720p, 1080p] (Хороший звук DUB, MVO) [ 12.58 GB ] Тихое место 2 / A Quiet Place Part II [2021 BDRip 1080p] DUB [] bober100 Скачать
2 | 0
Фильмы (WEB-DL 720p, 1080p) [ 7.66 GB ] Тихое место 2 / A Quiet Place Part II [2021 WEB-DL 1080p] bober100 Скачать
2 | 0
Фильмы [HD 720p, 1080p] (Хороший звук DUB, MVO) [ 5.13 GB ] Тихое место 2 / A Quiet Place Part II [2021 BDRip 720p] DUB [] bober100 Скачать
3 | 0
Ultra HD (UHD: 2K, 4K, 8K) — видео сверхвысокой чёткости [ 30.17 GB ] Тихое место 2 / A Quiet Place Part II [2021 UHD WEB-DL-HEVC 2160p] 2xDUB [ Пифагор / Кинопоиск HD] bober100 Скачать
2 | 0
Фильмы 2021 [DVDrip, WEB-DLRip, HDrip] (DUB, MVO) [ 746 MB ] Тихое место 2 / A Quiet Place Part II [2021 HDRip] bober100 Скачать
2 | 0
Фильмы (Blu-ray, BD-Remux, HDDVD) [ 21.93 GB ] Тихое место 2 / A Quiet Place Part II [2021 BD Remux 1080p] DUB [] bober100 Скачать
1 | 0
Ultra HD (UHD: 2K, 4K, 8K) — видео сверхвысокой чёткости [ 43.5 GB ] Тихое место 2 / A Quiet Place Part II [2021 UHD BDRemux 2160p ] DUB [] bober100 Скачать
1 | 0

28-11-2019 20:33  

Отключить всю рекламу на сайте

    Дорогой пользователь! Огромная просьба, поблагодарите релизера, оцените раздачу и оставьте свои комментарий, если Вы скачали Тихое место 2 через торрент бесплатно!
    Комментировать посты могут только пользователи прошедшие не сложную регистрацию
    Показать сообщения:    

    Тихое место 2 через торрент
    Скачать бесплатно Тихое место 2
    Тихое место 2 скачать торрент
    Тихое место 2 смотреть онлайн
    Cкачать фильм Тихое место 2 бесплатно
    Тихое место 2 скачать торрент в хорошем качестве
    Тихое место 2 смотреть онлайн бесплатно в хорошем качестве


    Вы не можете начинать темы
    Вы не можете отвечать на сообщения
    Вы не можете редактировать свои сообщения
    Вы не можете удалять свои сообщения
    Вы не можете голосовать в опросах
    Вы не можете прикреплять файлы к сообщениям
    Вы можете скачивать файлы