Присоединяйтесь к нам в Telegram!, здесь всегда актуальный адрес сайта, оперативная поддержка и многое другое!!

>

5.9

iTunes

7.4

iTunes

9.4

1 сезон

1

7.4

2 сезон

7.2

iTunes

7.3

1 сезон

13

6.1

iTunes

8.3

Пиратка

30

ULTIMATE

pack

9.9

Лицензия

ВАЖНО

ИГРА 18+

pack

7.3

RePack

MK11

7.7

RePack

jed

7.8

RePack

fifa19

8.5

RePack

RDR2

RePack

NEED FOR SPEED™ PAYBACK

5 сезон

9 сезон

Бесстыжие 9 сезон

Все сериалы

все сериалы на PB.wtf

RePack

FAR CRY 5

Anonymous, доброй ночи, мы катастрофически не успеваем собрать деньги на оплату серверов, помогите нам пожалуйста 5,10,15р., для нас важна любая помощь . В качестве благодарности мы отключим Вам всю рекламу на сайте (укажите свой ник в строку Ваше имя)!

×
  
Magnet ссылка

Никто не уйдёт живым / No One Gets Out Alive (Сантьяго Менгини) [2021, Ужасы, WEB-DLRip-AVC] DUB [Netflix] от MediaBit pb.wtf

Никто не уйдёт живым через торрент pb.wtf

Размер: 1.45 GB | Добавлен: 2 мес. 5 д. назад | Торрент скачан:58 раз
Смотреть онлайн Никто не уйдёт живым | Скачать    Ребята, помогите собрать деньги на оплату серверов!!!

30-09-2021 16:58 Никто не уйдёт живым Скачать торрент  


Никто не уйдёт живым / No One Gets Out Alive
Информация о фильме:
Название: Никто не уйдёт живым
Оригинальное название: No One Gets Out Alive
Год выхода: 2021
Жанр: Ужасы
Режиссер: Сантьяго Менгини
В ролях: Марк Менчака, Кристина Родло, Виктория Олкок, Дэвид Баррера, Джоана Борха, Дэвид Фильоли, Митчелл Маллен, Джефф Мырза

Описание: Эмбер надрывается на нескольких работах, чтобы приблизить исполнение своей американской мечты. Героиня снимает комнату в пансионате, а спустя некоторое время начинает замечать, что за ней постоянно кто-то наблюдает. Она слышит странные звуки и ощущает, как в воздухе разливается необъяснимое зло.



Страна: Великобритания
Студия: The Imaginarium Studios
Продолжительность: 01:27:16
Перевод: Дублированный - Netflix



Информация о файле:
Кодек: AVC
Формат: MKV
Качество: WEB-DLRip-AVC
Видео: MPEG-4 AVC, 1024x426, 24.000 fps, 1483 kbps
Аудио RU: AC3, 6 ch, 48 kHz, 448 kbps
Аудио EN: AC3, 6 ch, 48 kHz, 448 kbps
Субтитры: Русские (Forced, full), украинские (Full), английские

x264 info: frame I:1024 Avg QP:12.85 size: 65260
x264 info: frame P:21077 Avg QP:16.59 size: 19507
x264 info: frame B:103582 Avg QP:19.82 size: 4743
x264 info: consecutive B-frames: 1.6% 1.2% 2.7% 4.9% 8.9% 35.1% 22.5% 5.4% 4.0% 6.1% 7.7%
General
Unique ID : 171799508460058745599248773407157202556 (0x813F61BC2A4C741532B1614E67C72E7C)
Complete name : D:\uTorrent\Рипы wolf1245\No One Gets Out Alive.2021.DUB.Netflix.WEB-DLRip-AVC.[-=wolf1245.MediaBit=-].mkv
Format : Matroska
Format version : Version 4
File size : 1.45 GiB
Duration : 1 h 27 min
Overall bit rate : 2 378 kb/s
Movie name : No One Gets Out Alive.2021.DUB.Netflix.WEB-DLRip-AVC.[-=wolf1245.MediaBit=-]
Encoded date : UTC 2021-09-30 16:47:10
Writing application : mkvmerge v61.0.0 ('So') 64-bit
Writing library : libebml v1.4.2 + libmatroska v1.6.4

Video
ID : 1
Format : AVC
Format/Info : Advanced Video Codec
Format profile : High@L4.1
Format settings : CABAC / 14 Ref Frames
Format settings, CABAC : Yes
Format settings, Reference frames : 14 frames
Codec ID : V_MPEG4/ISO/AVC
Duration : 1 h 27 min
Bit rate : 1 483 kb/s
Width : 1 024 pixels
Height : 426 pixels
Display aspect ratio : 2.40:1
Frame rate mode : Constant
Frame rate : 24.000 FPS
Color space : YUV
Chroma subsampling : 4:2:0
Bit depth : 8 bits
Scan type : Progressive
Bits/(Pixel*Frame) : 0.142
Stream size : 924 MiB (62%)
Title : [-=wolf1245.MediaBit=-]
Writing library : x264 core 161 r3020 d198931
Encoding settings : cabac=1 / ref=14 / deblock=1:-3:-2 / analyse=0x3:0x133 / me=umh / subme=10 / psy=1 / psy_rd=1.00:0.05 / mixed_ref=1 / me_range=32 / chroma_me=1 / trellis=2 / 8x8dct=1 / cqm=0 / deadzone=21,11 / fast_pskip=1 / chroma_qp_offset=-3 / threads=10 / lookahead_threads=2 / sliced_threads=0 / nr=0 / decimate=1 / interlaced=0 / bluray_compat=0 / constrained_intra=0 / bframes=10 / b_pyramid=2 / b_adapt=2 / b_bias=0 / direct=3 / weightb=1 / open_gop=0 / weightp=2 / keyint=240 / keyint_min=24 / scenecut=40 / intra_refresh=0 / rc_lookahead=60 / rc=2pass / mbtree=1 / bitrate=1483 / ratetol=1.0 / qcomp=0.60 / qpmin=0 / qpmax=69 / qpstep=4 / cplxblur=20.0 / qblur=0.5 / vbv_maxrate=50000 / vbv_bufsize=62500 / nal_hrd=none / filler=0 / ip_ratio=1.40 / aq=3:0.80
Language : English
Default : Yes
Forced : No

Audio #1
ID : 2
Format : AC-3
Format/Info : Audio Coding 3
Commercial name : Dolby Digital
Codec ID : A_AC3
Duration : 1 h 27 min
Bit rate mode : Constant
Bit rate : 448 kb/s
Channel(s) : 6 channels
Channel layout : L R C LFE Ls Rs
Sampling rate : 48.0 kHz
Frame rate : 31.250 FPS (1536 SPF)
Compression mode : Lossy
Stream size : 280 MiB (19%)
Title : Netflix | DUB
Language : Russian
Service kind : Complete Main
Default : Yes
Forced : No

Audio #2
ID : 3
Format : AC-3
Format/Info : Audio Coding 3
Commercial name : Dolby Digital
Codec ID : A_AC3
Duration : 1 h 27 min
Bit rate mode : Constant
Bit rate : 448 kb/s
Channel(s) : 6 channels
Channel layout : L R C LFE Ls Rs
Sampling rate : 48.0 kHz
Frame rate : 31.250 FPS (1536 SPF)
Compression mode : Lossy
Stream size : 280 MiB (19%)
Title : Original
Language : English
Service kind : Complete Main
Default : No
Forced : No

Text #1
ID : 4
Format : UTF-8
Codec ID : S_TEXT/UTF8
Codec ID/Info : UTF-8 Plain Text
Duration : 1 h 25 min
Bit rate : 8 b/s
Count of elements : 133
Stream size : 5.20 KiB (0%)
Title : Forced
Language : Russian
Default : Yes
Forced : Yes

Text #2
ID : 5
Format : UTF-8
Codec ID : S_TEXT/UTF8
Codec ID/Info : UTF-8 Plain Text
Duration : 1 h 25 min
Bit rate : 39 b/s
Count of elements : 625
Stream size : 24.9 KiB (0%)
Title : Full
Language : Russian
Default : No
Forced : No

Text #3
ID : 6
Format : UTF-8
Codec ID : S_TEXT/UTF8
Codec ID/Info : UTF-8 Plain Text
Duration : 1 h 25 min
Bit rate : 41 b/s
Count of elements : 639
Stream size : 25.8 KiB (0%)
Title : Full
Language : Ukrainian
Default : No
Forced : No

Text #4
ID : 7
Format : UTF-8
Codec ID : S_TEXT/UTF8
Codec ID/Info : UTF-8 Plain Text
Duration : 1 h 15 min
Bit rate : 5 b/s
Count of elements : 115
Stream size : 2.79 KiB (0%)
Title : Forced
Language : English
Default : No
Forced : No

Text #5
ID : 8
Format : UTF-8
Codec ID : S_TEXT/UTF8
Codec ID/Info : UTF-8 Plain Text
Duration : 1 h 24 min
Bit rate : 44 b/s
Count of elements : 1072
Stream size : 27.1 KiB (0%)
Language : English
Default : No
Forced : No
Релиз от: &

Автор релиза:
pb.wtf



Скачать Никто не уйдёт живым через торрент https://i115.fastpic.org/big/2021/0930/a1/afe163bdeb039d083badc80327feaba1.jpg Скачать, смотреть онлайн Никто не уйдёт живым бесплантно в хорошем качестве Описание: Эмбер надрывается на нескольких работах, чтобы приблизить исполнение своей американской мечты. Героиня снимает комнату в ... 9.4 10 5
Торрент: Зарегистрирован [2021-09-30 16:58] · скачан: 58 раз
Статус: √ проверено
Размер: 1.45 GB
Как cкачать? Как скачать Никто не уйдёт живым через торрент | UTorrent

28-11-2019 20:33  

Отключить всю рекламу на сайте

    Дорогой пользователь! Огромная просьба, поблагодарите релизера, оцените раздачу и оставьте свои комментарий, если Вы скачали Никто не уйдёт живым через торрент бесплатно!
    Комментировать посты могут только пользователи прошедшие не сложную регистрацию
    Показать сообщения:    

    Никто не уйдёт живым через торрент
    Скачать бесплатно Никто не уйдёт живым
    Никто не уйдёт живым скачать торрент
    Никто не уйдёт живым смотреть онлайн
    Cкачать фильм Никто не уйдёт живым бесплатно
    Никто не уйдёт живым скачать торрент в хорошем качестве
    Никто не уйдёт живым смотреть онлайн бесплатно в хорошем качестве


    Вы не можете начинать темы
    Вы не можете отвечать на сообщения
    Вы не можете редактировать свои сообщения
    Вы не можете удалять свои сообщения
    Вы не можете голосовать в опросах
    Вы не можете прикреплять файлы к сообщениям
    Вы можете скачивать файлы