Всегда рабочее зеркало без VPN и Proxy просто перед .vidak.icu напиши любое слово или цифру, Пример http://ops4.vidak.icu

MVO

2 сезон

2 сезон

1

1 сезон

iTunes

2 сезон

13

1 сезон

Deluxe

pack

Рекомендуем

Пиратка

30

ВАЖНО

RePack

MK11

RePack

jed

RePack

fifa19

RePack

RDR2

RePack

NEED FOR SPEED™ PAYBACK

Кинопоиск HD

6 сезон

 Острые козырьки 6 сезон

Все сериалы

все сериалы на PB.wtf

RePack

FAR CRY 5

Anonymous, нам критически не хватает 5601 руб. на оплату серверов и переферии за Апрель, помоги нам пожалуйста, вся надежда только на тебя. В благодарность мы отключим тебе всю рекламу на сайте!

×
  
Magnet ссылка

Легенды Мортал комбат: Битва миров / Легенды «Смертельной битвы»: Битва королевств / Mortal Kombat Legends: Battle of the Realms (Этан Сполдинг) [2021, Мультфильм, фэнтези, боевик, приключения, UHD BDRemux 2160p] DUB [Кинопоиск HD] pb.wtf

Легенды Мортал комбат: Битва миров через торрент pb.wtf

Размер: 30.71 GB | Добавлен: 7 мес. назад | Торрент скачан:66 раз
Смотреть онлайн Легенды Мортал комбат: Битва миров | Скачать    Ребята, помогите собрать деньги на оплату серверов!!!

01-10-2021 13:19 Легенды Мортал комбат: Битва миров Скачать торрент  

Легенды Мортал комбат: Битва миров | Легенды «Смертельной битвы»: Битва королевств
Mortal Kombat Legends: Battle of the Realms

Год выпуска: 2021
Страна: США
Студия: DC Entertainment, Midway Games, Warner Bros. Animation
Жанр: Мультфильм, фэнтези, боевик, приключения
Продолжительность: 01:19:49
Перевод: Дублированный | Кинопоиск HD
Субтитры: Русские (Forced, full), английские

Режиссер: Этан Сполдинг

rating

В ролях: Дженнифер Карпентер, Грэй Гриффин, Джоэл МакХэйл, Айк Амади, Артт Батлер, Байардо Де Мургуйя, Робин Аткин Даунс, Мэтью Ян Кинг, Мэттью Мерсер

Описание: Действие фильма разворачивается сразу же после событий «Мести Скорпиона», в которой герои подвергаются нападению Шао Кана, что заставляет их идти на сделку с врагами. Теперь легендам «Смертельной битвы» нужно отправиться во внешний мир, чтобы защищать Земное царство, в то время как Скорпион продолжает искать магический артефакт Камидогу, который поможет ему уничтожить вселенную.

Качество: UHD BDRemux 2160p
Формат: MKV

Видео: 3840x2160 at 23.976 fps, MPEG-H HEVC HDR Video, ~ 49900 kbps avg
Аудио #01: 48 kHz, E-AC3, 5.1, 448 Kbps | Дублированный | RUS |
Аудио #02: 48 kHz, AC3, 5.1, 448 Kbps | Дублированный | RUS |
Аудио #03: 48 kHz, DTS-HD MA, 5.1, 4235 Kbps | Оригинал | ENG |
скриншот  скриншот  скриншот  скриншот  скриншот  

General
Unique ID : 162756236516993867234510793544034771308 (0x7A71B6011B487044E2976F79BC09616C)
Complete name : E:VideoMortal.Kombat.Legends.Battle.of.the.Realms.2021.BDREMUX.2160p.HDR.seleZen.mkv
Format : Matroska
Format version : Version 4
File size : 30.7 GiB
Duration : 1 h 19 min
Overall bit rate mode : Variable
Overall bit rate : 55.1 Mb/s
Movie name : Mortal Kombat Legends: Battle of the Realms 2021 from seleZen
Encoded date : UTC 2021-10-01 13:08:16
Writing application : mkvmerge v59.0.0 ('Shining Star') 64-bit
Writing library : libebml v1.4.2 + libmatroska v1.6.4

Video
ID : 1
Format : HEVC
Format/Info : High Efficiency Video Coding
Format profile : Main 10@L5.1@High
HDR format : SMPTE ST 2086, HDR10 compatible
Codec ID : V_MPEGH/ISO/HEVC
Duration : 1 h 19 min
Bit rate : 49.9 Mb/s
Width : 3 840 pixels
Height : 2 160 pixels
Display aspect ratio : 16:9
Frame rate mode : Constant
Frame rate : 23.976 (24000/1001) FPS
Color space : YUV
Chroma subsampling : 4:2:0 (Type 2)
Bit depth : 10 bits
Bits/(Pixel*Frame) : 0.251
Stream size : 27.8 GiB (91%)
Writing library : ATEME Titan File 3.9.6 (4.9.6.2)
Default : Yes
Forced : No
Color range : Limited
Color primaries : BT.2020
Transfer characteristics : PQ
Matrix coefficients : BT.2020 non-constant
Mastering display color primaries : BT.2020
Mastering display luminance : min: 0.0050 cd/m2, max: 4000 cd/m2
Maximum Content Light Level : 533 cd/m2
Maximum Frame-Average Light Level : 258 cd/m2

Audio #1
ID : 2
Format : E-AC-3
Format/Info : Enhanced AC-3
Commercial name : Dolby Digital Plus
Codec ID : A_EAC3
Duration : 1 h 19 min
Bit rate mode : Constant
Bit rate : 448 kb/s
Channel(s) : 6 channels
Channel layout : L R C LFE Ls Rs
Sampling rate : 48.0 kHz
Frame rate : 31.250 FPS (1536 SPF)
Compression mode : Lossy
Stream size : 256 MiB (1%)
Title : Dub
Language : Russian
Service kind : Complete Main
Default : Yes
Forced : Yes

Audio #2
ID : 3
Format : AC-3
Format/Info : Audio Coding 3
Commercial name : Dolby Digital
Codec ID : A_AC3
Duration : 1 h 19 min
Bit rate mode : Constant
Bit rate : 448 kb/s
Channel(s) : 6 channels
Channel layout : L R C LFE Ls Rs
Sampling rate : 48.0 kHz
Frame rate : 31.250 FPS (1536 SPF)
Compression mode : Lossy
Stream size : 256 MiB (1%)
Title : Dub
Language : Russian
Service kind : Complete Main
Default : No
Forced : No

Audio #3
ID : 4
Format : DTS XLL
Format/Info : Digital Theater Systems
Commercial name : DTS-HD Master Audio
Codec ID : A_DTS
Duration : 1 h 19 min
Bit rate mode : Variable
Bit rate : 4 235 kb/s
Channel(s) : 6 channels
Channel layout : C L R Ls Rs LFE
Sampling rate : 48.0 kHz
Frame rate : 93.750 FPS (512 SPF)
Bit depth : 24 bits
Compression mode : Lossless
Stream size : 2.36 GiB (8%)
Title : Original
Language : English
Default : No
Forced : No

Text #1
ID : 5
Format : UTF-8
Codec ID : S_TEXT/UTF8
Codec ID/Info : UTF-8 Plain Text
Duration : 35 min 4 s
Bit rate : 0 b/s
Count of elements : 4
Stream size : 212 Bytes (0%)
Title : Forced
Language : Russian
Default : Yes
Forced : Yes

Text #2
ID : 6
Format : UTF-8
Codec ID : S_TEXT/UTF8
Codec ID/Info : UTF-8 Plain Text
Duration : 1 h 16 min
Bit rate : 49 b/s
Count of elements : 621
Stream size : 27.9 KiB (0%)
Title : Full
Language : Russian
Default : No
Forced : No

Text #3
ID : 7
Format : UTF-8
Codec ID : S_TEXT/UTF8
Codec ID/Info : UTF-8 Plain Text
Duration : 1 h 15 min
Bit rate : 33 b/s
Count of elements : 649
Stream size : 18.7 KiB (0%)
Title : Full
Language : English
Default : No
Forced : No

Text #4
ID : 8
Format : UTF-8
Codec ID : S_TEXT/UTF8
Codec ID/Info : UTF-8 Plain Text
Duration : 1 h 16 min
Bit rate : 40 b/s
Count of elements : 941
Stream size : 23.0 KiB (0%)
Title : SDH
Language : English
Default : No
Forced : No

Menu
00:00:00.000 : Chapter 1
00:06:47.657 : Chapter 2
00:16:36.162 : Chapter 3
00:26:02.478 : Chapter 4
00:35:15.196 : Chapter 5
00:42:37.805 : Chapter 6
00:50:00.915 : Chapter 7
00:59:14.384 : Chapter 8
01:08:39.532 : Chapter 9
01:17:13.671 : Chapter 10

pb.wtf



Скачать Легенды Мортал комбат: Битва миров через торрент https://c.radikal.ru/c13/2110/4c/7260755d9e66.jpg Скачать, смотреть онлайн Легенды Мортал комбат: Битва миров бесплантно в хорошем качестве Описание: Действие фильма разворачивается сразу же после событий «Мести Скорпиона», в которой герои подвергаются нападению Шао Кана, что ... 10 10 3
Торрент: Зарегистрирован [2021-10-01 13:19] · скачан: 66 раз
Статус: √ проверено
Размер: 30.71 GB
Как cкачать? Как скачать Легенды Мортал комбат: Битва миров через торрент | UTorrent

% Раздел Тема Автор DL S | L
Зарубежные Мультфильмы (BDRip 1080p, 720p, Blu-ray, BD-Remux) [ 6.19 GB ] Легенды Мортал комбат: Битва миров / Легенды «Смертельной битвы»: Битва королевств / Mortal Kombat Legends: Battle of the Realms [2021 Мультфильм BDRip 1080p] DUB [Кинопоиск HD] bober100 Скачать
3 | 1

28-11-2019 20:33  

Отключить всю рекламу на сайте

    Дорогой пользователь! Огромная просьба, поблагодарите релизера, оцените раздачу и оставьте свои комментарий, если Вы скачали Легенды Мортал комбат: Битва миров через торрент бесплатно!
    Комментировать посты могут только пользователи прошедшие не сложную регистрацию
    Показать сообщения:    

    Легенды Мортал комбат: Битва миров через торрент
    Скачать бесплатно Легенды Мортал комбат: Битва миров
    Легенды Мортал комбат: Битва миров скачать торрент
    Легенды Мортал комбат: Битва миров смотреть онлайн
    Cкачать фильм Легенды Мортал комбат: Битва миров бесплатно
    Легенды Мортал комбат: Битва миров скачать торрент в хорошем качестве
    Легенды Мортал комбат: Битва миров смотреть онлайн бесплатно в хорошем качестве


    Вы не можете начинать темы
    Вы не можете отвечать на сообщения
    Вы не можете редактировать свои сообщения
    Вы не можете удалять свои сообщения
    Вы не можете голосовать в опросах
    Вы не можете прикреплять файлы к сообщениям
    Вы можете скачивать файлы