Достать ножи: Стеклянная луковица

MVO

Добыча

Дубляж

Уэнсдэй

1 сезон

Тор

Дубляж

13 клиническая

1 сезон

Жестокая ночь

MVO

Одни из нас

1 сезон

Deluxe

pack

Рекомендуем

30

Пиратка

ВАЖНО

ВАЖНО

Ghostwire

Пиратка

jed

RePack

nioh2

RePack

RDR2

RePack

NEED FOR SPEED™ PAYBACK

RePack

скачать торрент

Кинопоиск HD

Острые козырьки 6 сезон

6 сезон

FAR CRY 6

RePack

скачать торрент

Лицензия

скачать торрент

MVO

1

1 сезон

скачать торрент

1 сезон

скачать торрент

Лицензия

  

Виновный / The Guilty (Антуан Фукуа) [2021, Триллер, криминал, WEB-DLRip-AVC] Дубляж [Невафильм / Netflix]

Виновный через торрент pb.wtf

Размер: 1.45 GB | Добавлен: 1 год 4 мес. назад | Торрент скачан:166 раз
Смотреть онлайн | Скачать | Поддержите нас   

01-10-2021 15:11 Виновный Скачать торрент  

Виновный | The Guilty
Год выпуска: 2021
Страна: США
Студия: Amet Entertainment, Bold Films, Endeavor Content, Fuqua Films, Nine Stories Productions
Жанр: Триллер, криминал
Продолжительность: 01:31:05
Перевод: Дублированный | Невафильм по заказу Netflix
Субтитры:Русские (Forced, full)

Режиссер: Антуан Фукуа

rating

В ролях: Джейк Джилленхол, Райли Кио, Билл Берр, Итан Хоук, Пол Дано, Вивьен Лира Блэр, Питер Сарсгаард, Бо Напп, Эди Паттерсон, Кристина Видаль

Описание: Полицейский Джо Бейлер работает оператором службы экстренной помощи. Когда ему на пульт поступает звонок от женщины, заявляющей, что ее похитили, Джо пытается сделать все, чтобы помочь ей. Не имея возможности покинуть пост, он вынужден искать способы, чтобы спасти женщину, действуя вслепую.
«Виновный» — телефонный триллер с Джеком Джилленхолом, основанный на одноименном датском фильме 2018 года

Качество: WEB-DLRip-AVC
Формат: MKV

Видео: 1024x428 at 23.976 fps, [email protected], ~1834 kbps, 0.175 bpp
Аудио: AC3, 48 kHz, 6 ch, ~448.00 kbps avg | русский | Невафильм
скриншот  скриншот  скриншот  скриншот  скриншот  

x264 info: frame I:867 Avg QP:12.36 size: 72613
x264 info: frame P:21222 Avg QP:15.19 size: 24393
x264 info: frame B:108947 Avg QP:17.10 size: 6122

General
Unique ID : 251058399155333309756825731592464729343 (0xBCE016C05613220A59F07BEAD81D84FF)
Complete name : I:The.Guilty.(2021).WEB-DLRip-AVC.mkv
Format : Matroska
Format version : Version 4
File size : 1.45 GiB
Duration : 1 h 31 min
Overall bit rate : 2 276 kb/s
Encoded date : UTC 2021-10-01 14:36:23
Writing application : mkvmerge v61.0.0 ('So') 64-bit
Writing library : libebml v1.4.2 + libmatroska v1.6.4
Cover : Yes
Attachments : Cover.jpg / Cover 2.jpg

Video
ID : 1
Format : AVC
Format/Info : Advanced Video Codec
Format profile : [email protected]
Format settings : CABAC / 12 Ref Frames
Format settings, CABAC : Yes
Format settings, Reference : 12 frames
Codec ID : V_MPEG4/ISO/AVC
Duration : 1 h 31 min
Bit rate : 1 834 kb/s
Width : 1 024 pixels
Height : 428 pixels
Display aspect ratio : 2.40:1
Frame rate mode : Constant
Frame rate : 23.976 (24000/1001) FPS
Color space : YUV
Chroma subsampling : 4:2:0
Bit depth : 8 bits
Scan type : Progressive
Bits/(Pixel*Frame) : 0.175
Stream size : 1.16 GiB (80%)
Title : -=DoMiNo=-
Writing library : x264 core 161 r3020 d198931
Encoding settings : cabac=1 / ref=12 / deblock=1:-3:-3 / analyse=0x3:0x133 / me=umh / subme=9 / psy=1 / psy_rd=1.00:0.08 / mixed_ref=1 / me_range=32 / chroma_me=1 / trellis=2 / 8x8dct=1 / cqm=0 / deadzone=21,11 / fast_pskip=0 / chroma_qp_offset=-3 / threads=24 / lookahead_threads=3 / sliced_threads=0 / nr=0 / decimate=0 / interlaced=0 / bluray_compat=0 / constrained_intra=0 / bframes=11 / b_pyramid=2 / b_adapt=2 / b_bias=0 / direct=3 / weightb=1 / open_gop=0 / weightp=2 / keyint=240 / keyint_min=24 / scenecut=40 / intra_refresh=0 / rc=2pass / mbtree=0 / bitrate=1834 / ratetol=1.0 / qcomp=0.60 / qpmin=0 / qpmax=69 / qpstep=4 / cplxblur=20.0 / qblur=0.5 / ip_ratio=1.40 / pb_ratio=1.30 / aq=1:1.00
Language : English
Default : Yes
Forced : No

Audio
ID : 2
Format : AC-3
Format/Info : Audio Coding 3
Commercial name : Dolby Digital
Codec ID : A_AC3
Duration : 1 h 31 min
Bit rate mode : Constant
Bit rate : 448 kb/s
Channel(s) : 6 channels
Channel layout : L R C LFE Ls Rs
Sampling rate : 48.0 kHz
Frame rate : 31.250 FPS (1536 SPF)
Compression mode : Lossy
Stream size : 292 MiB (20%)
Title : Дубляж
Language : Russian
Service kind : Complete Main
Default : Yes
Forced : No

Text #1
ID : 3
Format : UTF-8
Codec ID : S_TEXT/UTF8
Codec ID/Info : UTF-8 Plain Text
Duration : 1 h 28 min
Bit rate : 0 b/s
Count of elements : 12
Stream size : 525 Bytes (0%)
Title : Forced
Language : Russian
Default : Yes
Forced : No

Text #2
ID : 4
Format : UTF-8
Codec ID : S_TEXT/UTF8
Codec ID/Info : UTF-8 Plain Text
Duration : 1 h 28 min
Bit rate : 90 b/s
Count of elements : 1194
Stream size : 58.7 KiB (0%)
Language : Russian
Default : No
Forced : No




Скачать Виновный через торрент https://i115.fastpic.org/big/2021/1001/39/022c10caa8af02190da3aff388602a39.jpg Скачать, смотреть онлайн Виновный бесплантно в хорошем качестве Описание: Полицейский Джо Бейлер работает оператором службы экстренной помощи. Когда ему на пульт поступает звонок от женщины, заявляющей, ... 10 10 7
Торрент: Зарегистрирован [2021-10-01 15:11] · скачан: 166 раз
Статус: √ проверено
Размер: 1.45 GB
Как cкачать? Как скачать Виновный через торрент | UTorrent

% Раздел Тема Автор DL S | L
Фильмы 2021 [DVDrip, WEB-DLRip, HDrip] (DUB, MVO) [ 1.45 GB ] Виновный / The Guilty | Лицензия | DLRip Twi7ter Скачать
31 | 1
Фильмы (WEB-DL 720p, 1080p) [ 5.16 GB ] Виновный / The Guilty | DUB | 1080p bober100 Скачать
1 | 0
Фильмы (WEB-DL 720p, 1080p) [ 4.4 GB ] Виновный / The Guilty | DUB | 1080p bober100 Скачать
2 | 1
Фильмы 2021 [DVDrip, WEB-DLRip, HDrip] (DUB, MVO) [ 1.77 GB ] Виновный / The Guilty | Jaskier | DLRip-AVC Lithuania Скачать
1 | 0
Фильмы 2021 [DVDrip, WEB-DLRip, HDrip] (DUB, MVO) [ 1.46 GB ] Виновный / The Guilty | DUB | DLRip bober100 Скачать
1 | 0

28-11-2019 20:33  


Отключить вcю реклaмy на сайте, в т.ч. и в плеере онлайн просмотра!

    Дорогой пользователь! Огромная просьба, поблагодарите релизера, оцените раздачу и оставьте свои комментарий, если Вы скачали Виновный через торрент бесплатно!!
    Комментировать посты могут только пользователи прошедшие не сложную регистрацию
    Показать сообщения:    


    Виновный через торрент
    Скачать бесплатно Виновный
    Виновный скачать торрент
    Виновный смотреть онлайн
    Cкачать фильм Виновный бесплатно
    Виновный скачать торрент в хорошем качестве
    Виновный смотреть онлайн бесплатно в хорошем качестве
    Вы не можете начинать темы
    Вы не можете отвечать на сообщения
    Вы не можете редактировать свои сообщения
    Вы не можете удалять свои сообщения
    Вы не можете голосовать в опросах
    Вы не можете прикреплять файлы к сообщениям
    Вы можете скачивать файлы
    Виновный / The Guilty [2021, Триллер, криминал, WEB-DLRip-AVC] Дубляж [Невафильм / Netflix] смотреть онлайн, скачать торрент picoco.icu