Anonymous, добрый день, присоединяйтесь к нам в Telegram!, здесь всегда актуальный адрес сайта, оперативная поддержка и многое другое!

>

5.6

iTunes

7.4

iTunes

7.9

MVO

1

7.7

1 сезон

6.8

iTunes

7.3

1 сезон

13

6.7

1 сезон

8.3

RePack

30

ULTIMATE

pack

9.9

Лицензия

ВАЖНО

ИГРА 18+

pack

7.3

RePack

MK11

7.7

RePack

jed

7.8

RePack

fifa19

8.5

RePack

RDR2

RePack

NEED FOR SPEED™ PAYBACK

4 сезон

9 сезон

Бесстыжие 9 сезон

Все сериалы

все сериалы на PB.wtf

RePack

FAR CRY 5

Anonymous, добрый день, мы катастрофически не успеваем собрать деньги на оплату серверов, помогите нам пожалуйста 5,10,15р., для нас важна любая помощь . В качестве благодарности мы отключим Вам всю рекламу на сайте (укажите свой ник в строку Ваше имя)!

×
  
Magnet ссылка

Тайна парка развлечений / Boonie Bears: The Wild Life (Дин Лян) [2021, Мультфильм, комедия, фантастика, приключения, WEB-DL 1080p] DUB [Кинопоиск HD] pb.wtf

Тайна парка развлечений через торрент pb.wtf

Раздают: 19 [ 326 KB/s ] Качают: 2 [ 0 KB/s ]
Размер: 4.82 GB | Добавлен: 18 д. назад | Торрент скачан:161 раз
Смотреть онлайн Тайна парка развлечений | Скачать    Ребята, помогите собрать деньги на оплату серверов!!!

01-10-2021 15:19 Тайна парка развлечений Скачать торрент  

Тайна парка развлечений | Boonie Bears: The Wild Life
Год выпуска: 2021
Страна: Китай
Жанр: Мультфильм, комедия, фантастика, приключения
Продолжительность: 01:37:30
Перевод: Дублированный | Кинопоиск HD
Субтитры: отсутствуют

Режиссер: Дин Лян

rating

В ролях: Крис Бойке, Джозеф С. Ламберт, Никки Стинсон, Ксяо Тань, Чжан Вэй, Биньюн Жанг

Описание: Медведи снова в деле. Они приезжают в загадочный парк развлечений, где их ждут невероятные приключения, весёлые розыгрыши и, конечно же, аттракционы. Медведи найдут новых друзей и вместе с ними раскроют тайну парка.

Качество: WEB-DL 1080p
Формат: MKV

Видео: MPEG-4 AVC, 1916x800, 6471 Kbit/s, 23.976 fps
Аудио #01: 48 kHz, AC3, 5.1, 448 Kbps | Дублированный | RUS |
Аудио #02: 48 kHz, AAC, 2.0, 158 Kbps | Оригинал | ENG |
скриншот  скриншот  скриншот  скриншот  скриншот  

General
Unique ID : 64013107320779608382348380092885135298 (0x302879DC97E12D3B03A5BF8371746FC2)
Complete name : E:VideoBoonie.Bears.The.Wild.Life.2021.WEB-DL.1080p.seleZen.mkv
Format : Matroska
Format version : Version 4
File size : 4.82 GiB
Duration : 1 h 37 min
Overall bit rate : 7 074 kb/s
Movie name : Boonie Bears The Wild Life 2021 from seleZen
Encoded date : UTC 2021-10-01 14:55:33
Writing application : mkvmerge v59.0.0 ('Shining Star') 64-bit
Writing library : libebml v1.4.2 + libmatroska v1.6.4

Video
ID : 1
Format : AVC
Format/Info : Advanced Video Codec
Format profile : High@L4
Format settings : CABAC / 5 Ref Frames
Format settings, CABAC : Yes
Format settings, Reference frames : 5 frames
Codec ID : V_MPEG4/ISO/AVC
Duration : 1 h 37 min
Bit rate : 6 471 kb/s
Width : 1 916 pixels
Height : 800 pixels
Display aspect ratio : 2.40:1
Frame rate mode : Constant
Frame rate : 23.976 (24000/1001) FPS
Color space : YUV
Chroma subsampling : 4:2:0
Bit depth : 8 bits
Scan type : Progressive
Bits/(Pixel*Frame) : 0.176
Stream size : 4.41 GiB (91%)
Language : English
Default : Yes
Forced : No
Color range : Limited
Color primaries : BT.709
Transfer characteristics : BT.709
Matrix coefficients : BT.709

Audio #1
ID : 2
Format : AC-3
Format/Info : Audio Coding 3
Commercial name : Dolby Digital
Codec ID : A_AC3
Duration : 1 h 37 min
Bit rate mode : Constant
Bit rate : 448 kb/s
Channel(s) : 6 channels
Channel layout : L R C LFE Ls Rs
Sampling rate : 48.0 kHz
Frame rate : 31.250 FPS (1536 SPF)
Compression mode : Lossy
Stream size : 313 MiB (6%)
Language : Russian
Service kind : Complete Main
Default : Yes
Forced : Yes

Audio #2
ID : 3
Format : AAC LC
Format/Info : Advanced Audio Codec Low Complexity
Codec ID : A_AAC-2
Duration : 1 h 37 min
Bit rate : 158 kb/s
Channel(s) : 2 channels
Channel layout : L R
Sampling rate : 48.0 kHz
Frame rate : 46.875 FPS (1024 SPF)
Compression mode : Lossy
Stream size : 110 MiB (2%)
Language : English
Default : No
Forced : No

pb.wtf



Скачать Тайна парка развлечений через торрент https://a.radikal.ru/a14/2110/bf/e4ff1c0d8444.jpg Скачать, смотреть онлайн Тайна парка развлечений бесплантно в хорошем качестве Описание: Медведи снова в деле. Они приезжают в загадочный парк развлечений, где их ждут невероятные приключения, весёлые розыгрыши и, ... 10 10 8
Торрент: Зарегистрирован [2021-10-01 15:19] · скачан: 161 раз
Статус: √ проверено
Размер: 4.82 GB
Как cкачать? Как скачать Тайна парка развлечений через торрент | UTorrent

28-11-2019 20:33  

Отключить всю рекламу на сайте

    Дорогой пользователь! Огромная просьба, поблагодарите релизера, оцените раздачу и оставьте свои комментарий, если Вы скачали Тайна парка развлечений через торрент бесплатно!
    Комментировать посты могут только пользователи прошедшие не сложную регистрацию
    Показать сообщения:    

    Тайна парка развлечений через торрент
    Скачать бесплатно Тайна парка развлечений
    Тайна парка развлечений скачать торрент
    Тайна парка развлечений смотреть онлайн
    Cкачать фильм Тайна парка развлечений бесплатно
    Тайна парка развлечений скачать торрент в хорошем качестве
    Тайна парка развлечений смотреть онлайн бесплатно в хорошем качестве


    Вы не можете начинать темы
    Вы не можете отвечать на сообщения
    Вы не можете редактировать свои сообщения
    Вы не можете удалять свои сообщения
    Вы не можете голосовать в опросах
    Вы не можете прикреплять файлы к сообщениям
    Вы можете скачивать файлы