Достать ножи: Стеклянная луковица

MVO

Добыча

Дубляж

Уэнсдэй

1 сезон

Тор

Дубляж

13 клиническая

1 сезон

Жестокая ночь

MVO

Одни из нас

1 сезон

Deluxe

pack

Рекомендуем

30

Пиратка

ВАЖНО

ВАЖНО

Ghostwire

Пиратка

jed

RePack

nioh2

RePack

RDR2

RePack

NEED FOR SPEED™ PAYBACK

RePack

скачать торрент

Кинопоиск HD

Острые козырьки 6 сезон

6 сезон

FAR CRY 6

RePack

скачать торрент

Лицензия

скачать торрент

MVO

1

1 сезон

скачать торрент

1 сезон

скачать торрент

Лицензия

  

Виновный / The Guilty (Антуан Фукуа) [2021, Триллер, криминал, WEB-DLRip-AVC] Дубляж, MVO [Netflix, Jaskier] от MediaBit

Виновный через торрент pb.wtf

Раздают: 1 [ 0 KB/s ]
Размер: 1.77 GB | Добавлен: 1 год 4 мес. назад | Торрент скачан:146 раз
Смотреть онлайн | Скачать | Поддержите нас   

01-10-2021 17:57 Виновный Скачать торрент  


Виновный / The Guilty
Название: Виновный
Оригинальное название: The Guilty
Год выхода: 2021
Жанр: Триллер, криминал
Режиссер: Антуан Фукуа

В ролях: Джейк Джилленхол, Райли Кио, Билл Берр, Итан Хоук, Пол Дано, Вивьен Лира Блэр, Питер Сарсгаард, Бо Напп, Эди Паттерсон, Кристина Видаль

Описание: Полицейский Джо Бейлер работает оператором службы экстренной помощи. Когда ему на пульт поступает звонок от женщины, заявляющей, что ее похитили, Джо пытается сделать все, чтобы помочь ей. Не имея возможности покинуть пост, он вынужден искать способы, чтобы спасти женщину, действуя вслепую.
«Виновный» — телефонный триллер с Джеком Джилленхолом, основанный на одноименном датском фильме 2018 года .



Страна: США
Студия: Amet Entertainment, Bold Films, Endeavor Content
Продолжительность: 01:31:05
Перевод: Дублированный - Невафильм по заказу Netflix , Профессиональный (многоголосый, закадровый) - Jaskier



Информация о файле:
Кодек: AVC
Формат: MKV
Качество: WEB-DLRip-AVC
Видео: MPEG-4 AVC, 1024x428, 23.976 fps, 1436 kbps
Аудио RU: AC3, 6 ch, 48 kHz, 448 kbps | Netflix
Аудио RU: AC3, 6 ch, 48 kHz, 448 kbps | Tnx.KinoPub | Jaskier
Аудио EN: AC3, 6 ch, 48 kHz, 448 kbps
Субтитры: Русские (Forced, full), украинские (Full), английские

264 info: frame I:877 Avg QP:10.46 size: 75846
x264 info: frame P:21491 Avg QP:13.87 size: 20679
x264 info: frame B:108667 Avg QP:17.75 size: 4296
x264 info: consecutive B-frames: 1.1% 0.9% 2.5% 4.6% 9.6% 35.6% 24.6% 5.3% 3.8% 4.0% 8.1%
General
Unique ID : 188660758215324259112721572408383287853 (0x8DEEBD88163691A28D755119DD08B22D)
Complete name : D:uTorrentРипы wolf1245The Guilty.2021.Дубляж.MVO.WEB-DLRip-AVC.[-=wolf1245.MediaBit=-].mkv
Format : Matroska
Format version : Version 4
File size : 1.77 GiB
Duration : 1 h 31 min
Overall bit rate : 2 778 kb/s
Movie name : The Guilty.2021.Дубляж.MVO.WEB-DLRip-AVC.[-=wolf1245.MediaBit=-]
Encoded date : UTC 2021-10-01 17:41:32
Writing application : mkvmerge v61.0.0 ('So') 64-bit
Writing library : libebml v1.4.2 + libmatroska v1.6.4
Video
ID : 1
Format : AVC
Format/Info : Advanced Video Codec
Format profile : [email protected]
Format settings : CABAC / 14 Ref Frames
Format settings, CABAC : Yes
Format settings, Reference frames : 14 frames
Codec ID : V_MPEG4/ISO/AVC
Duration : 1 h 31 min
Bit rate : 1 436 kb/s
Width : 1 024 pixels
Height : 428 pixels
Display aspect ratio : 2.40:1
Frame rate mode : Constant
Frame rate : 23.976 (24000/1001) FPS
Color space : YUV
Chroma subsampling : 4:2:0
Bit depth : 8 bits
Scan type : Progressive
Bits/(Pixel*Frame) : 0.137
Stream size : 932 MiB (52%)
Title : [-=wolf1245.MediaBit=-]
Writing library : x264 core 161 r3020 d198931
Encoding settings : cabac=1 / ref=14 / deblock=1:-3:-2 / analyse=0x3:0x133 / me=umh / subme=10 / psy=1 / psy_rd=1.00:0.05 / mixed_ref=1 / me_range=32 / chroma_me=1 / trellis=2 / 8x8dct=1 / cqm=0 / deadzone=21,11 / fast_pskip=1 / chroma_qp_offset=-3 / threads=10 / lookahead_threads=2 / sliced_threads=0 / nr=0 / decimate=1 / interlaced=0 / bluray_compat=0 / constrained_intra=0 / bframes=10 / b_pyramid=2 / b_adapt=2 / b_bias=0 / direct=3 / weightb=1 / open_gop=0 / weightp=2 / keyint=240 / keyint_min=24 / scenecut=40 / intra_refresh=0 / rc_lookahead=60 / rc=2pass / mbtree=1 / bitrate=1436 / ratetol=1.0 / qcomp=0.60 / qpmin=0 / qpmax=69 / qpstep=4 / cplxblur=20.0 / qblur=0.5 / vbv_maxrate=50000 / vbv_bufsize=62500 / nal_hrd=none / filler=0 / ip_ratio=1.40 / aq=3:0.80
Language : English
Default : Yes
Forced : No
Audio #1
ID : 2
Format : AC-3
Format/Info : Audio Coding 3
Commercial name : Dolby Digital
Codec ID : A_AC3
Duration : 1 h 31 min
Bit rate mode : Constant
Bit rate : 448 kb/s
Channel(s) : 6 channels
Channel layout : L R C LFE Ls Rs
Sampling rate : 48.0 kHz
Frame rate : 31.250 FPS (1536 SPF)
Compression mode : Lossy
Stream size : 292 MiB (16%)
Title : [Дубляж] Невафильм
Language : Russian
Service kind : Complete Main
Default : Yes
Forced : No
Audio #2
ID : 3
Format : AC-3
Format/Info : Audio Coding 3
Commercial name : Dolby Digital
Codec ID : A_AC3
Duration : 1 h 31 min
Bit rate mode : Constant
Bit rate : 448 kb/s
Channel(s) : 6 channels
Channel layout : L R C LFE Ls Rs
Sampling rate : 48.0 kHz
Frame rate : 31.250 FPS (1536 SPF)
Compression mode : Lossy
Stream size : 292 MiB (16%)
Title : [MVO] Jaskier
Language : Russian
Service kind : Complete Main
Default : No
Forced : No
Audio #3
ID : 4
Format : AC-3
Format/Info : Audio Coding 3
Commercial name : Dolby Digital
Codec ID : A_AC3
Duration : 1 h 31 min
Bit rate mode : Constant
Bit rate : 448 kb/s
Channel(s) : 6 channels
Channel layout : L R C LFE Ls Rs
Sampling rate : 48.0 kHz
Frame rate : 31.250 FPS (1536 SPF)
Compression mode : Lossy
Stream size : 292 MiB (16%)
Language : English
Service kind : Complete Main
Default : No
Forced : No
Text #1
ID : 5
Format : UTF-8
Codec ID : S_TEXT/UTF8
Codec ID/Info : UTF-8 Plain Text
Duration : 1 h 28 min
Bit rate : 0 b/s
Count of elements : 12
Stream size : 525 Bytes (0%)
Title : [forced]
Language : Russian
Default : Yes
Forced : No
Text #2
ID : 6
Format : UTF-8
Codec ID : S_TEXT/UTF8
Codec ID/Info : UTF-8 Plain Text
Duration : 1 h 28 min
Bit rate : 90 b/s
Count of elements : 1194
Stream size : 58.7 KiB (0%)
Title : [full]
Language : Russian
Default : No
Forced : No
Text #3
ID : 7
Format : UTF-8
Codec ID : S_TEXT/UTF8
Codec ID/Info : UTF-8 Plain Text
Duration : 1 h 28 min
Bit rate : 95 b/s
Count of elements : 1201
Stream size : 62.3 KiB (0%)
Title : [full]
Language : Ukrainian
Default : No
Forced : No
Text #4
ID : 8
Format : UTF-8
Codec ID : S_TEXT/UTF8
Codec ID/Info : UTF-8 Plain Text
Duration : 1 h 23 min
Bit rate : 79 b/s
Count of elements : 1464
Stream size : 48.5 KiB (0%)
Language : English
Default : No
Forced : No
Релиз от: amp;




Скачать Виновный через торрент https://i115.fastpic.org/big/2021/1001/70/e38e5574e5b583749a0078921d9d5370.jpg Скачать, смотреть онлайн Виновный бесплантно в хорошем качестве Описание: Полицейский Джо Бейлер работает оператором службы экстренной помощи. Когда ему на пульт поступает звонок от женщины, ... 10 10 4
Торрент: Зарегистрирован [2021-10-01 17:57] · скачан: 146 раз
Статус: √ проверено
Размер: 1.77 GB
Как cкачать? Как скачать Виновный через торрент | UTorrent

28-11-2019 20:33  


Отключить вcю реклaмy на сайте, в т.ч. и в плеере онлайн просмотра!

    Дорогой пользователь! Огромная просьба, поблагодарите релизера, оцените раздачу и оставьте свои комментарий, если Вы скачали Виновный через торрент бесплатно!!
    Комментировать посты могут только пользователи прошедшие не сложную регистрацию
    Показать сообщения:    


    Виновный через торрент
    Скачать бесплатно Виновный
    Виновный скачать торрент
    Виновный смотреть онлайн
    Cкачать фильм Виновный бесплатно
    Виновный скачать торрент в хорошем качестве
    Виновный смотреть онлайн бесплатно в хорошем качестве
    Вы не можете начинать темы
    Вы не можете отвечать на сообщения
    Вы не можете редактировать свои сообщения
    Вы не можете удалять свои сообщения
    Вы не можете голосовать в опросах
    Вы не можете прикреплять файлы к сообщениям
    Вы можете скачивать файлы
    Виновный / The Guilty [2021, Триллер, криминал, WEB-DLRip-AVC] Дубляж, MVO [Netflix, Jaskier] от MediaBit смотреть онлайн, скачать торрент picoco.icu