Присоединяйтесь к нам в Telegram!, здесь всегда актуальный адрес сайта, оперативная поддержка и многое другое!!

>

5.9

iTunes

7.4

iTunes

9.4

1 сезон

1

7.4

2 сезон

7.2

iTunes

7.3

1 сезон

13

6.1

iTunes

8.3

GOG

30

ULTIMATE

pack

9.9

Лицензия

ВАЖНО

ИГРА 18+

pack

7.3

RePack

MK11

7.7

RePack

jed

7.8

RePack

fifa19

8.5

RePack

RDR2

RePack

NEED FOR SPEED™ PAYBACK

5 сезон

9 сезон

Бесстыжие 9 сезон

Все сериалы

все сериалы на PB.wtf

RePack

FAR CRY 5

Anonymous, доброй ночи, мы катастрофически не успеваем собрать деньги на оплату серверов, помогите нам пожалуйста 5,10,15р., для нас важна любая помощь . В качестве благодарности мы отключим Вам всю рекламу на сайте (укажите свой ник в строку Ваше имя)!

×
  
Magnet ссылка

Безумное кино для взрослых / Неудачный трах, или Безумное порно / Babardeala cu bucluc sau porno balamuc (Раду Жуде) [2021, Драма, комедия, WEB-DLRip-AVC] MVO [КиноПоиск HD] pb.wtf

Безумное кино для взрослых через торрент pb.wtf

Раздают: 1 [ 3 KB/s ]
Размер: 2.06 GB | Добавлен: 1 мес. 25 д. назад | Торрент скачан:56 раз
Смотреть онлайн Безумное кино для взрослых | Скачать    Ребята, помогите собрать деньги на оплату серверов!!!

02-10-2021 03:02 Безумное кино для взрослых Скачать торрент  

Безумное кино для взрослых | Неудачный трах, или Безумное порно
Babardeala cu bucluc sau porno balamuc

Год выпуска: 2021
Страна: Румыния, Люксембург, Чехия, Хорватия, Швейцария, Великобритания
Выпущено: Bord Cadre Films, Endorfilm, Kinorama, Microfilm
Жанр: Драма, комедия
Продолжительность: 01:41:45
Перевод: Профессиональный (многоголосый) | КиноПоиск HD
Субтитры: отсутствуют

Режиссер: Раду Жуде

rating

В ролях: Катя Паскарю, Клаудия Иеремия, Олимпия Малаи, Никодим Унгуряну, Александру Поточан, Анди Васлуяну, Габриел Спахиу, Кристина Чепрага, Тудорел Филимон

Описание: Эми — школьная учительница, чья карьера и репутация оказываются под угрозой, когда в интернет попадает интимное видео с ее участием. Возмущенные до глубины души родители требуют ее немедленного увольнения. Но Эми не собирается так легко сдаваться.

Качество: WEB-DLRip-AVC
Формат: MKV

Видео: 1024x436 at 25.000 fps, x264@L4.1, ~2000 kbps
Аудио 1: AC3, 6 ch, ~448 kbps - | Русский | -
Аудио 2: AC3, 6 ch, ~448 kbps - | Румынский | -
скриншот  скриншот  скриншот  скриншот  скриншот  

General
Unique ID : 139917907070115566355874335127067786440 (0x6943356D3F53CBC0AE80569F3FF17CC8)
Complete name : I:Bezumnoe.kino.dlya.vzroslyh.(2021).WEB-DLRip-AVC.mkv
Format : Matroska
Format version : Version 4
File size : 2.06 GiB
Duration : 1 h 41 min
Overall bit rate : 2 898 kb/s
Encoded date : UTC 2021-10-01 21:00:12
Writing application : mkvmerge v61.0.0 ('So') 64-bit
Writing library : libebml v1.4.2 + libmatroska v1.6.4
Cover : Yes
Attachments : Cover.jpg / Cover 2.jpg

Video
ID : 1
Format : AVC
Format/Info : Advanced Video Codec
Format profile : High@L4.1
Format settings : CABAC / 12 Ref Frames
Format settings, CABAC : Yes
Format settings, Reference : 12 frames
Codec ID : V_MPEG4/ISO/AVC
Duration : 1 h 41 min
Bit rate : 2 000 kb/s
Width : 1 024 pixels
Height : 436 pixels
Display aspect ratio : 2.35:1
Frame rate mode : Constant
Frame rate : 25.000 FPS
Color space : YUV
Chroma subsampling : 4:2:0
Bit depth : 8 bits
Scan type : Progressive
Bits/(Pixel*Frame) : 0.179
Stream size : 1.42 GiB (69%)
Title : -=DoMiNo=-
Writing library : x264 core 161 r3020 d198931
Encoding settings : cabac=1 / ref=12 / deblock=1:-3:-3 / analyse=0x3:0x133 / me=umh / subme=9 / psy=1 / psy_rd=1.00:0.08 / mixed_ref=1 / me_range=32 / chroma_me=1 / trellis=2 / 8x8dct=1 / cqm=0 / deadzone=21,11 / fast_pskip=0 / chroma_qp_offset=-3 / threads=24 / lookahead_threads=3 / sliced_threads=0 / nr=0 / decimate=0 / interlaced=0 / bluray_compat=0 / constrained_intra=0 / bframes=11 / b_pyramid=2 / b_adapt=2 / b_bias=0 / direct=3 / weightb=1 / open_gop=0 / weightp=2 / keyint=250 / keyint_min=25 / scenecut=40 / intra_refresh=0 / rc=2pass / mbtree=0 / bitrate=2000 / ratetol=1.0 / qcomp=0.60 / qpmin=0 / qpmax=69 / qpstep=4 / cplxblur=20.0 / qblur=0.5 / ip_ratio=1.40 / pb_ratio=1.30 / aq=1:1.00
Language : English
Default : Yes
Forced : No

Audio #1
ID : 2
Format : AC-3
Format/Info : Audio Coding 3
Commercial name : Dolby Digital
Codec ID : A_AC3
Duration : 1 h 41 min
Bit rate mode : Constant
Bit rate : 448 kb/s
Channel(s) : 6 channels
Channel layout : L R C LFE Ls Rs
Sampling rate : 48.0 kHz
Frame rate : 31.250 FPS (1536 SPF)
Compression mode : Lossy
Stream size : 326 MiB (15%)
Title : MVO
Language : Russian
Service kind : Complete Main
Default : Yes
Forced : No

Audio #2
ID : 3
Format : AC-3
Format/Info : Audio Coding 3
Commercial name : Dolby Digital
Codec ID : A_AC3
Duration : 1 h 41 min
Bit rate mode : Constant
Bit rate : 448 kb/s
Channel(s) : 6 channels
Channel layout : L R C LFE Ls Rs
Sampling rate : 48.0 kHz
Frame rate : 31.250 FPS (1536 SPF)
Compression mode : Lossy
Stream size : 326 MiB (15%)
Language : Romanian
Service kind : Complete Main
Default : No
Forced : No

pb.wtf



Скачать Безумное кино для взрослых через торрент https://i4.imageban.ru/out/2021/10/01/df5188985a4c164dae5f3b1ed753eecb.jpg Скачать, смотреть онлайн Безумное кино для взрослых бесплантно в хорошем качестве Описание: Эми — школьная учительница, чья карьера и репутация оказываются под угрозой, когда в интернет попадает интимное видео с ее ... 8.2 10 5
Торрент: Зарегистрирован [2021-10-02 03:02] · скачан: 56 раз
Статус: √ проверено
Размер: 2.06 GB
Как cкачать? Как скачать Безумное кино для взрослых через торрент | UTorrent

% Раздел Тема Автор DL S | L
Фильмы (WEB-DL 720p, 1080p) [ 5.19 GB ] Безумное кино для взрослых / Неудачный трах или Безумное порно / Babardeala cu bucluc sau porno balamuc [2021 WEB-DL 1080p] MVO [КиноПоиск HD] bober100 Скачать
4 | 0
Фильмы 2021 [DVDrip, WEB-DLRip, HDrip] (DUB, MVO) [ 1.46 GB ] Безумное кино для взрослых / Неудачный трах или Безумное порно / Babardeala cu bucluc sau porno balamuc [2021 WEB-DLRip] MVO [КиноПоиск HD] bober100 Скачать
2 | 0

28-11-2019 20:33  

Отключить всю рекламу на сайте

    Дорогой пользователь! Огромная просьба, поблагодарите релизера, оцените раздачу и оставьте свои комментарий, если Вы скачали Безумное кино для взрослых через торрент бесплатно!
    Комментировать посты могут только пользователи прошедшие не сложную регистрацию
    Показать сообщения:    

    Безумное кино для взрослых через торрент
    Скачать бесплатно Безумное кино для взрослых
    Безумное кино для взрослых скачать торрент
    Безумное кино для взрослых смотреть онлайн
    Cкачать фильм Безумное кино для взрослых бесплатно
    Безумное кино для взрослых скачать торрент в хорошем качестве
    Безумное кино для взрослых смотреть онлайн бесплатно в хорошем качестве


    Вы не можете начинать темы
    Вы не можете отвечать на сообщения
    Вы не можете редактировать свои сообщения
    Вы не можете удалять свои сообщения
    Вы не можете голосовать в опросах
    Вы не можете прикреплять файлы к сообщениям
    Вы можете скачивать файлы