Присоединяйтесь к нам в Telegram!, здесь всегда актуальный адрес сайта, оперативная поддержка и многое другое!!

>

5.9

iTunes

7.4

iTunes

9.4

1 сезон

1

7.4

2 сезон

7.2

iTunes

7.3

1 сезон

13

6.1

iTunes

8.3

GOG

30

ULTIMATE

pack

9.9

Лицензия

ВАЖНО

ИГРА 18+

pack

7.3

RePack

MK11

7.7

RePack

jed

7.8

RePack

fifa19

8.5

RePack

RDR2

RePack

NEED FOR SPEED™ PAYBACK

5 сезон

9 сезон

Бесстыжие 9 сезон

Все сериалы

все сериалы на PB.wtf

RePack

FAR CRY 5

Anonymous, добрый вечер, мы катастрофически не успеваем собрать деньги на оплату серверов, помогите нам пожалуйста 5,10,15р., для нас важна любая помощь . В качестве благодарности мы отключим Вам всю рекламу на сайте (укажите свой ник в строку Ваше имя)!

×
  
Magnet ссылка

Безумное кино для взрослых / Babardeala cu bucluc sau porno balamuc (Раду Жуде) [2020, драма, комедия, WEB-DLRip-AVC] MVO [КиноПоиск HD] от MediaBit pb.wtf

Безумное кино для взрослых через торрент pb.wtf

Раздают: 8 [ 0 KB/s ]
Размер: 1.45 GB | Добавлен: 1 мес. 28 д. назад | Торрент скачан:162 раза
Смотреть онлайн Безумное кино для взрослых | Скачать    Ребята, помогите собрать деньги на оплату серверов!!!

02-10-2021 07:06 Безумное кино для взрослых Скачать торрент  


Безумное кино для взрослых / Babardeala cu bucluc sau porno balamuc
Информация о фильме:
Название: Безумное кино для взрослых
Оригинальное название: Babardeala cu bucluc sau porno balamuc
Год выхода: 2021
Жанр: драма, комедия
Режиссер: Раду Жуде
В ролях: Катя Паскарю, Клаудия Иеремия, Олимпия Малаи, Никодим Унгуряну, Александру Поточан, Анди Васлуяну, Габриел Спахиу, Кристина Чепрага, Тудорел Филимон

Описание: Эми — школьная учительница, чья карьера и репутация оказываются под угрозой, когда в интернет попадает интимное видео с ее участием. Возмущенные до глубины души родители требуют ее немедленного увольнения. Но Эми не собирается так легко сдаваться.



Страна: Румыния, Люксембург, Чехия, Хорватия, Швейцария, Великобритания
Студия: Bord Cadre Films, Endorfilm, Kinorama, Microfilm
Продолжительность: 01:41:45
Перевод: Профессиональный (многоголосый, закадровый) - КиноПоиск HD



Информация о файле:
Кодек: AVC
Формат: MKV
Качество: WEB-DLRip-AVC
Видео: MPEG-4 AVC, 1024x436, 25.000 fps, 1593Mkbps
Аудио RU: AC3, 6 ch, 48 kHz, 448 kbps



* Присутствуют сцены откровенного характера!
x264 info: frame I:760 Avg QP:13.75 size: 87912
x264 info: frame P:38256 Avg QP:18.28 size: 18244
x264 info: frame B:113613 Avg QP:20.92 size: 4098
General
Unique ID : 110753877654755638213570625863055288113 (0x53526BC2EF7BDA5C43DE84FFD703A731)
Complete name : D:\uTorrent\Рипы wolf1245\Babardeala cu bucluc sau porno balamuc.2021.MVO.WEB-DLRip-AVC.[-=wolf1245.MediaBit=-].mkv
Format : Matroska
Format version : Version 4
File size : 1.45 GiB
Duration : 1 h 41 min
Overall bit rate : 2 043 kb/s
Movie name : Babardeala cu bucluc sau porno balamuc.2021.MVO.WEB-DLRip-AVC.[-=wolf1245.MediaBit=-]
Encoded date : UTC 2021-10-02 07:02:11
Writing application : mkvmerge v61.0.0 ('So') 64-bit
Writing library : libebml v1.4.2 + libmatroska v1.6.4

Video
ID : 1
Format : AVC
Format/Info : Advanced Video Codec
Format profile : High@L4.1
Format settings : CABAC / 14 Ref Frames
Format settings, CABAC : Yes
Format settings, Reference frames : 14 frames
Codec ID : V_MPEG4/ISO/AVC
Duration : 1 h 41 min
Bit rate : 1 593 kb/s
Width : 1 024 pixels
Height : 436 pixels
Display aspect ratio : 2.35:1
Frame rate mode : Constant
Frame rate : 25.000 FPS
Color space : YUV
Chroma subsampling : 4:2:0
Bit depth : 8 bits
Scan type : Progressive
Bits/(Pixel*Frame) : 0.143
Stream size : 1.13 GiB (78%)
Title : [-=wolf1245.MediaBit=-]
Writing library : x264 core 161 r3020 d198931
Encoding settings : cabac=1 / ref=14 / deblock=1:-3:-2 / analyse=0x3:0x133 / me=umh / subme=10 / psy=1 / psy_rd=1.00:0.05 / mixed_ref=1 / me_range=32 / chroma_me=1 / trellis=2 / 8x8dct=1 / cqm=0 / deadzone=21,11 / fast_pskip=1 / chroma_qp_offset=-3 / threads=10 / lookahead_threads=2 / sliced_threads=0 / nr=0 / decimate=1 / interlaced=0 / bluray_compat=0 / constrained_intra=0 / bframes=12 / b_pyramid=2 / b_adapt=2 / b_bias=0 / direct=3 / weightb=1 / open_gop=0 / weightp=2 / keyint=250 / keyint_min=25 / scenecut=40 / intra_refresh=0 / rc_lookahead=60 / rc=2pass / mbtree=1 / bitrate=1593 / ratetol=1.0 / qcomp=0.60 / qpmin=0 / qpmax=69 / qpstep=4 / cplxblur=20.0 / qblur=0.5 / vbv_maxrate=50000 / vbv_bufsize=62500 / nal_hrd=none / filler=0 / ip_ratio=1.40 / aq=3:0.80
Language : English
Default : Yes
Forced : No

Audio
ID : 2
Format : AC-3
Format/Info : Audio Coding 3
Commercial name : Dolby Digital
Codec ID : A_AC3
Duration : 1 h 41 min
Bit rate mode : Constant
Bit rate : 448 kb/s
Channel(s) : 6 channels
Channel layout : L R C LFE Ls Rs
Sampling rate : 48.0 kHz
Frame rate : 31.250 FPS (1536 SPF)
Compression mode : Lossy
Stream size : 326 MiB (22%)
Title : MVO | (KinoPoisk HD)
Language : Russian
Service kind : Complete Main
Default : Yes
Forced : No
Релиз от: &

Автор релиза:
pb.wtf



Скачать Безумное кино для взрослых через торрент https://i115.fastpic.org/big/2021/1002/48/c231489999d22408caaac480e14cf348.jpg Скачать, смотреть онлайн Безумное кино для взрослых бесплантно в хорошем качестве Описание: Эми — школьная учительница, чья карьера и репутация оказываются под угрозой, когда в интернет попадает интимное видео с ее ... 10 10 8
Info! Золотая раздача, скачанное не засчитывается.
Торрент: Зарегистрирован [2021-10-02 07:06] · скачан: 162 раз
Статус: √ проверено
Размер: 1.45 GB
Как cкачать? Как скачать Безумное кино для взрослых через торрент | UTorrent

28-11-2019 20:33  

Отключить всю рекламу на сайте

02-10-2021 09:31 Безумное кино для взрослых Скачать торрент  

По скринам - Это что реально первое кино в намордниках?))pb.wtf



02-10-2021 12:51 Безумное кино для взрослых Скачать торрент  

Снято кино отлично. Актёры играют убедительно, масса хорошо знакомых большинству людей жизненных ситуаций показана абсолютно реалистично, пейзажи и интерьеры создают нужное настроение. Фильм о том как унылые, недалёкие правящие *Елиты* ничего не понявшие из камланий французских философоff 1970 -1980-х (а скорее всего и вовсе их не читавшие) тянут свои страны и народы в новое *светлое* будущее по указанию тех, кто это всё прочитал, понял и принял как руководство к действию. На фоне того археомодерна в котором мы оказались, Brave New World совершенно не выглядит антиутопией. Если выбирать из вариантов будущего в которых нет ценностей выше материальных, где нет того, что нельзя купить, так лучше уж беззаботный мир Хаксли. В основе конфликта проще простого предотвращаемая утечка в сеть частного контента. То есть допустившие её ГГ и её муж сами изрядно беззаботные придурки. Положительных героев нет. При этом многообразие персонажей и их позиций обязательно поможет каждому воину света найти своего *героя*. Один из лучших фильмов 2021 года. Спасибо за раздачу.pb.wtf



    Дорогой пользователь! Огромная просьба, поблагодарите релизера, оцените раздачу и оставьте свои комментарий, если Вы скачали Безумное кино для взрослых через торрент бесплатно!
    Комментировать посты могут только пользователи прошедшие не сложную регистрацию
    Показать сообщения:    

    Безумное кино для взрослых через торрент
    Скачать бесплатно Безумное кино для взрослых
    Безумное кино для взрослых скачать торрент
    Безумное кино для взрослых смотреть онлайн
    Cкачать фильм Безумное кино для взрослых бесплатно
    Безумное кино для взрослых скачать торрент в хорошем качестве
    Безумное кино для взрослых смотреть онлайн бесплатно в хорошем качестве


    Вы не можете начинать темы
    Вы не можете отвечать на сообщения
    Вы не можете редактировать свои сообщения
    Вы не можете удалять свои сообщения
    Вы не можете голосовать в опросах
    Вы не можете прикреплять файлы к сообщениям
    Вы можете скачивать файлы