Присоединяйтесь к нам в Telegram!, здесь всегда актуальный адрес сайта, оперативная поддержка и многое другое!!

>

5.9

iTunes

7.4

iTunes

9.4

1 сезон

1

7.4

2 сезон

7.2

iTunes

7.3

1 сезон

13

6.1

iTunes

8.3

GOG

30

ULTIMATE

pack

9.9

Лицензия

ВАЖНО

ИГРА 18+

pack

7.3

RePack

MK11

7.7

RePack

jed

7.8

RePack

fifa19

8.5

RePack

RDR2

RePack

NEED FOR SPEED™ PAYBACK

5 сезон

9 сезон

Бесстыжие 9 сезон

Все сериалы

все сериалы на PB.wtf

RePack

FAR CRY 5

Anonymous, добрый вечер, мы катастрофически не успеваем собрать деньги на оплату серверов, помогите нам пожалуйста 5,10,15р., для нас важна любая помощь . В качестве благодарности мы отключим Вам всю рекламу на сайте (укажите свой ник в строку Ваше имя)!

×
  
Magnet ссылка

Отчаянные аферистки / Queenpins (Арон Годет, Гита Пуллапилли) [2021, Комедия, криминал, WEB-DLRip-AVC] DUB, DVO [Line, Pazl Voice] от MediaBit pb.wtf

Отчаянные аферистки через торрент pb.wtf

Раздают: 11 [ 0 KB/s ]
Размер: 2.32 GB | Добавлен: 1 мес. 30 д. назад | Торрент скачан:220 раз
Смотреть онлайн Отчаянные аферистки | Скачать    Ребята, помогите собрать деньги на оплату серверов!!!

03-10-2021 14:57 Отчаянные аферистки Скачать торрент  


Отчаянные аферистки / Queenpins
Информация о фильме:
Название: Отчаянные аферистки
Оригинальное название: Queenpins
Год выхода: 2021
Жанр: Комедия, криминал
Режиссер: Арон Годет, Гита Пуллапилли
В ролях: Кристен Белл, Кирби Хауэлл-Баптист, Пол Уолтер Хаузер, Винс Вон, Джоэл МакХэйл, Стивен Рут, Ник Кассаветис, Марк Ивэн Джексон, Энни Мумоло, Джек Макбрайер

Описание: Конни и ДжоДжо — лучшие подруги, которые погрязли в быту и домашней рутине. Но однажды им удалось перевернуть свою жизнь, превратив парочку купонов на еду в 40 миллионов долларов! Теперь у них есть все — модная одежда, дорогие спорткары, частный самолет. И все было бы как в сказке, если бы не два копа, которые пытаются поймать отчаянных домохозяек и разоблачить их хитроумную схему.



Страна: США
Студия: AGC Studios, Marquee Entertainment, Red Hour Films
Продолжительность: 01:50:24
Перевод: Дублированный - Line , Любительский (двухголосый, закадровый) - Pazl Voice



Информация о файле:
Кодек: AVC
Формат: MKV
Качество: WEB-DLRip-AVC
Видео: MPEG-4 AVC, 1024x466, 24.000 fps, 1935 kbps
Аудио RU: AC3, 2 ch, 48 kHz, 192 kbps | DUB | Tnx.KinoPub
Аудио RU: AC3, 6 ch, 48 kHz, 448 kbps | DVO | Tnx.KinoPub
Аудио EN: AC3, 6 ch, 48 kHz, 448 kbps
Субтитры: Английские

x264 info: frame I:1496 Avg QP:12.58 size:101971
x264 info: frame P:35136 Avg QP:15.71 size: 24599
x264 info: frame B:122361 Avg QP:19.53 size: 4696
x264 info: consecutive B-frames: 1.9% 1.8% 5.3% 40.5% 13.2% 25.8% 4.0% 4.4% 0.9% 0.7% 0.4% 0.6% 0.5%
General
Unique ID : 177251527460697516459843085774317704590 (0x8559670678A393E4E06277815130558E)
Complete name : D:\uTorrent\Рипы wolf1245\Queenpins.2021.DUB.DVO.WEB-DLRip-AVC.[wolf1245.MediaBit].mkv
Format : Matroska
Format version : Version 4
File size : 2.32 GiB
Duration : 1 h 50 min
Overall bit rate : 3 012 kb/s
Movie name : Queenpins.2021.DUB.DVO.WEB-DLRip-AVC.[wolf1245.MediaBit]
Encoded date : UTC 2021-10-03 14:42:21
Writing application : mkvmerge v61.0.0 ('So') 64-bit
Writing library : libebml v1.4.2 + libmatroska v1.6.4

Video
ID : 1
Format : AVC
Format/Info : Advanced Video Codec
Format profile : High@L4.1
Format settings : CABAC / 14 Ref Frames
Format settings, CABAC : Yes
Format settings, Reference frames : 14 frames
Codec ID : V_MPEG4/ISO/AVC
Duration : 1 h 50 min
Bit rate : 1 935 kb/s
Width : 1 024 pixels
Height : 466 pixels
Display aspect ratio : 2.2:1
Frame rate mode : Constant
Frame rate : 24.000 FPS
Color space : YUV
Chroma subsampling : 4:2:0
Bit depth : 8 bits
Scan type : Progressive
Bits/(Pixel*Frame) : 0.169
Stream size : 1.48 GiB (64%)
Title : [wolf1245.MediaBit]
Writing library : x264 core 161 r3020 d198931
Encoding settings : cabac=1 / ref=14 / deblock=1:-3:-3 / analyse=0x3:0x133 / me=umh / subme=11 / psy=1 / psy_rd=1.00:0.07 / mixed_ref=1 / me_range=48 / chroma_me=1 / trellis=2 / 8x8dct=1 / cqm=0 / deadzone=21,11 / fast_pskip=1 / chroma_qp_offset=-3 / threads=10 / lookahead_threads=2 / sliced_threads=0 / nr=0 / decimate=1 / interlaced=0 / bluray_compat=0 / constrained_intra=0 / bframes=12 / b_pyramid=2 / b_adapt=2 / b_bias=0 / direct=3 / weightb=1 / open_gop=0 / weightp=2 / keyint=240 / keyint_min=24 / scenecut=40 / intra_refresh=0 / rc_lookahead=60 / rc=2pass / mbtree=1 / bitrate=1935 / ratetol=1.0 / qcomp=0.60 / qpmin=0 / qpmax=69 / qpstep=4 / cplxblur=20.0 / qblur=0.5 / vbv_maxrate=50000 / vbv_bufsize=62500 / nal_hrd=none / filler=0 / ip_ratio=1.40 / aq=3:0.80
Language : English
Default : Yes
Forced : No
Color range : Limited
Color primaries : BT.709
Transfer characteristics : BT.709
Matrix coefficients : BT.709

Audio #1
ID : 2
Format : AC-3
Format/Info : Audio Coding 3
Commercial name : Dolby Digital
Codec ID : A_AC3
Duration : 1 h 50 min
Bit rate mode : Constant
Bit rate : 192 kb/s
Channel(s) : 2 channels
Channel layout : L R
Sampling rate : 48.0 kHz
Frame rate : 31.250 FPS (1536 SPF)
Compression mode : Lossy
Stream size : 151 MiB (6%)
Title : [DUB] | Line
Language : Russian
Service kind : Complete Main
Default : Yes
Forced : No

Audio #2
ID : 3
Format : AC-3
Format/Info : Audio Coding 3
Commercial name : Dolby Digital
Codec ID : A_AC3
Duration : 1 h 50 min
Bit rate mode : Constant
Bit rate : 448 kb/s
Channel(s) : 6 channels
Channel layout : L R C LFE Ls Rs
Sampling rate : 48.0 kHz
Frame rate : 31.250 FPS (1536 SPF)
Compression mode : Lossy
Stream size : 354 MiB (15%)
Title : [DVO] Pazl Voice
Language : Russian
Service kind : Complete Main
Default : No
Forced : No

Audio #3
ID : 4
Format : AC-3
Format/Info : Audio Coding 3
Commercial name : Dolby Digital
Codec ID : A_AC3
Duration : 1 h 50 min
Bit rate mode : Constant
Bit rate : 448 kb/s
Channel(s) : 6 channels
Channel layout : L R C LFE Ls Rs
Sampling rate : 48.0 kHz
Frame rate : 31.250 FPS (1536 SPF)
Compression mode : Lossy
Stream size : 354 MiB (15%)
Title : Original
Language : English
Service kind : Complete Main
Default : No
Forced : No

Text
ID : 5
Format : UTF-8
Codec ID : S_TEXT/UTF8
Codec ID/Info : UTF-8 Plain Text
Duration : 1 h 43 min
Bit rate : 95 b/s
Count of elements : 1847
Stream size : 72.3 KiB (0%)
Language : English
Default : No
Forced : No
Релиз от: &

Автор релиза:
pb.wtf



Скачать Отчаянные аферистки через торрент https://i115.fastpic.org/big/2021/1003/10/99d6134f9f3201e8396bde7a03295210.jpg Скачать, смотреть онлайн Отчаянные аферистки бесплантно в хорошем качестве Описание: Конни и ДжоДжо — лучшие подруги, которые погрязли в быту и домашней рутине. Но однажды им удалось перевернуть свою жизнь, ... 10 10 6
Торрент: Зарегистрирован [2021-10-03 14:57] · скачан: 220 раз
Статус: T временная
Размер: 2.32 GB
Как cкачать? Как скачать Отчаянные аферистки через торрент | UTorrent

28-11-2019 20:33  

Отключить всю рекламу на сайте

    Дорогой пользователь! Огромная просьба, поблагодарите релизера, оцените раздачу и оставьте свои комментарий, если Вы скачали Отчаянные аферистки через торрент бесплатно!
    Комментировать посты могут только пользователи прошедшие не сложную регистрацию
    Показать сообщения:    

    Отчаянные аферистки через торрент
    Скачать бесплатно Отчаянные аферистки
    Отчаянные аферистки скачать торрент
    Отчаянные аферистки смотреть онлайн
    Cкачать фильм Отчаянные аферистки бесплатно
    Отчаянные аферистки скачать торрент в хорошем качестве
    Отчаянные аферистки смотреть онлайн бесплатно в хорошем качестве


    Вы не можете начинать темы
    Вы не можете отвечать на сообщения
    Вы не можете редактировать свои сообщения
    Вы не можете удалять свои сообщения
    Вы не можете голосовать в опросах
    Вы не можете прикреплять файлы к сообщениям
    Вы можете скачивать файлы