Присоединяйтесь к нам в Telegram!, здесь всегда актуальный адрес сайта, оперативная поддержка и многое другое!!

>

5.9

iTunes

7.4

iTunes

9.4

1 сезон

1

7.4

2 сезон

7.2

iTunes

7.3

1 сезон

13

6.1

iTunes

8.3

GOG

30

ULTIMATE

pack

9.9

Лицензия

ВАЖНО

ИГРА 18+

pack

7.3

RePack

MK11

7.7

RePack

jed

7.8

RePack

fifa19

8.5

RePack

RDR2

RePack

NEED FOR SPEED™ PAYBACK

5 сезон

9 сезон

Бесстыжие 9 сезон

Все сериалы

все сериалы на PB.wtf

RePack

FAR CRY 5

Anonymous, добрый вечер, мы катастрофически не успеваем собрать деньги на оплату серверов, помогите нам пожалуйста 5,10,15р., для нас важна любая помощь . В качестве благодарности мы отключим Вам всю рекламу на сайте (укажите свой ник в строку Ваше имя)!

×
  
Magnet ссылка

Круиз по джунглям / Jungle Cruise (Жауме Кольет-Серра) [2021 г., приключения, комедия, фэнтези, HDRip, Дубляж "iTunes"] pb.wtf

Круиз по джунглям через торрент pb.wtf

Раздают: 2 [ 0 KB/s ]
Размер: 775 MB | Добавлен: 1 мес. 29 д. назад | Торрент скачан:15 раз
Смотреть онлайн Круиз по джунглям | Скачать    Ребята, помогите собрать деньги на оплату серверов!!!

03-10-2021 18:40 Круиз по джунглям Скачать торрент  

Круиз по джунглям / Jungle Cruise
Год выпуска: 2021
Страна: США / Davis Entertainment , Flynn Picture Company , Seven Bucks Productions
Жанр: приключения, комедия, фэнтези
Продолжительность: 02:07:19
Перевод: Дубляж (iTunes)
Субтитры: русские форсированные – вшитые

Режиссер: Жауме Кольет-Серра

rating

В ролях: Эмили Блант, Дуэйн Джонсон, Эдгар Рамирес, Джек Уайтхолл, Джесси Племонс, Пол Джаматти, Вероника Фалькон, Энди Найман, Филипп Максимилиан, Дани Ровира

Описание: Хитростью и немалой сноровкой раздобыв бесценную карту верховьев Амазонки, бойкая археолог Лили Хоутон отправляется в экспедицию, чтобы найти волшебное дерево, цветок которого — согласно легенде — обладает невероятными целебными свойствами. Прихватив с собой младшего брата, который не в восторге от перспективы поездки в дикие джунгли, девушка нанимает проводника — капитана круизного пароходика по имени Фрэнк. Вся компания пускается в приключение, где их подстерегают не только смертельно опасные представители амазонской флоры и фауны, но и ловушки, подстроенные участниками конкурирующей экспедиции.

Качество: HDRip
Формат: AVI
Видео кодек: DivX
Аудио кодек: MP3
Видео: 640x272 (2.35:1), 23.976 fps, DivX Codec 4.x ~713 kbps avg, 0.17 bit/pixel
Аудио: 48 kHz, MPEG Layer 3, 2 ch, ~128.00 kbps avg

Общее
Полное имя : G:\ФИЛЬМЫ\Круиз по джунглям.2021.D.HDRip.avi
Формат : AVI
Формат/Информация : Audio Video Interleave
Размер файла : 775 Мбайт
Продолжительность : 2 ч. 7 м.
Общий поток : 851 Кбит/сек
Программа кодирования : VirtualDubMod 1.5.10.3 | www.virtualdub-fr.org || (build 2550/release)
Библиотека кодирования : VirtualDubMod build 2550/release

Видео
Идентификатор : 0
Формат : MPEG-4 Visual
Профиль формата : Advanced Simple@L5
Настройки формата : BVOP2
Параметр BVOP формата : 2
Параметр QPel формата : Нет
Параметр GMC формата : Без точки перехода
Параметр матрицы формата : Default (MPEG)
Идентификатор кодека : DIVX
Идентификатор кодека/Информация : Project Mayo
Идентификатор кодека/Подсказка : DivX 4
Продолжительность : 2 ч. 7 м.
Битрейт : 714 Кбит/сек
Ширина : 640 пикселей
Высота : 272 пикселя
Соотношение сторон : 2,35:1
Частота кадров : 23,976 (24000/1001) кадра/сек
Цветовое пространство : YUV
Субдискретизация насыщенности : 4:2:0
Битовая глубина : 8 бит
Тип развёртки : Прогрессивная
Метод сжатия : С потерями
Бит/(Пиксели*Кадры) : 0.171
Размер потока : 650 Мбайт (84%)
Библиотека кодирования : XviD 1.2.1 (UTC 2008-12-04)

Аудио
Идентификатор : 1
Формат : MPEG Audio
Версия формата : Version 1
Профиль формата : Layer 3
Настройки формата : Joint stereo / MS Stereo
Идентификатор кодека : 55
Идентификатор кодека/Подсказка : MP3
Продолжительность : 2 ч. 7 м.
Вид битрейта : Постоянный
Битрейт : 128 Кбит/сек
Каналы : 2 канала
Частота : 48,0 КГц
Частота кадров : 41,667 кадра/сек (1152 SPF)
Метод сжатия : С потерями
Размер потока : 117 Мбайт (15%)
Выравнивание : Соединение по промежуткам
Продолжительность промежутка : 42 мс. (1,00 видеокадр)
Время предзагрузки промежутка : 504 мс.
Библиотека кодирования : LAME3.99r
Настройки программы : -m j -V 4 -q 2 -lowpass 17 -b 128

Report created by : MediaInfoLib - v21.09
Report created on : UTC 2021-10-03 18:11:33

pb.wtf



Скачать Круиз по джунглям через торрент https://pic1.kartinco.top/new/img/2021-10/03/w8fhdumfn797dl096pyzpyvcj.jpg Скачать, смотреть онлайн Круиз по джунглям бесплантно в хорошем качестве Описание: Хитростью и немалой сноровкой раздобыв бесценную карту верховьев Амазонки, бойкая археолог Лили Хоутон отправляется в экспедицию, ... 10 10 2
Торрент: Зарегистрирован [2021-10-03 18:40] · скачан: 15 раз
Статус: √ проверено
Размер: 775 MB
Как cкачать? Как скачать Круиз по джунглям через торрент | UTorrent

% Раздел Тема Автор DL S | L
Ultra HD (UHD: 2K, 4K, 8K) — видео сверхвысокой чёткости [ 54.46 GB ] Круиз по джунглям / Jungle Cruise [2021 UHD BDRemux 2160p] DUB [Невафильм] +MVO [HDRezka Studio] +AVO [М. Яроцкий ] bober100 Скачать
7 | 0
Фильмы 2021 [DVDrip, WEB-DLRip, HDrip] (DUB, MVO) [ 2.18 GB ] Круиз по джунглям / Jungle Cruise [2021 BDRip] - [ / Невафильм] Twi7ter Скачать
146 | 0
Фильмы 2021 [DVDrip, WEB-DLRip, HDrip] (DUB, MVO) [ 1.47 GB ] Круиз по джунглям / Jungle Cruise [2021 BDRip] - [ / Невафильм] Twi7ter Скачать
127 | 17
Фильмы [HD 720p, 1080p] (Хороший звук DUB, MVO) [ 10.56 GB ] Круиз по джунглям / Jungle Cruise [2021 BDRip 1080p] DUB [Невафильм] +MVO [HDRezka Studio] +AVO [М. Яроцкий ] bober100 Скачать
18 | 0
Фильмы [HD 720p, 1080p] (Хороший звук DUB, MVO) [ 6.57 GB ] Круиз по джунглям / Jungle Cruise [2021 BDRip 720p] DUB [Невафильм] +MVO [HDRezka Studio] +AVO [М. Яроцкий ] bober100 Скачать
8 | 0
Фильмы 2021 [DVDrip, WEB-DLRip, HDrip] (DUB, MVO) [ 1.46 GB ] Круиз по джунглям / Jungle Cruise [2021 BDRip] DUB [Невафильм] bober100 Скачать
4 | 0
Фильмы (Blu-ray, BD-Remux, HDDVD) [ 31.26 GB ] Круиз по джунглям / Jungle Cruise [2021 BD Remux 1080p] DUB [Невафильм] +MVO [HDRezka Studio] +AVO [М. Яроцкий ] bober100 Скачать
2 | 0

28-11-2019 20:33  

Отключить всю рекламу на сайте

    Дорогой пользователь! Огромная просьба, поблагодарите релизера, оцените раздачу и оставьте свои комментарий, если Вы скачали Круиз по джунглям через торрент бесплатно!
    Комментировать посты могут только пользователи прошедшие не сложную регистрацию
    Показать сообщения:    

    Круиз по джунглям через торрент
    Скачать бесплатно Круиз по джунглям
    Круиз по джунглям скачать торрент
    Круиз по джунглям смотреть онлайн
    Cкачать фильм Круиз по джунглям бесплатно
    Круиз по джунглям скачать торрент в хорошем качестве
    Круиз по джунглям смотреть онлайн бесплатно в хорошем качестве


    Вы не можете начинать темы
    Вы не можете отвечать на сообщения
    Вы не можете редактировать свои сообщения
    Вы не можете удалять свои сообщения
    Вы не можете голосовать в опросах
    Вы не можете прикреплять файлы к сообщениям
    Вы можете скачивать файлы