Всегда рабочее зеркало просто перед .vidak.icu напиши любое слово или цифру, Пример http://vvv.vidak.icu

>

7.4

iTunes

7.4

2 сезон

6.6

iTunes

1

7.4

2 сезон

7.2

iTunes

6.0

MVO

13

6.1

iTunes

8.3

Пиратка

30

ULTIMATE

pack

9.9

Лицензия

ВАЖНО

ИГРА 18+

pack

7.3

RePack

MK11

7.7

RePack

jed

7.8

RePack

fifa19

8.5

RePack

RDR2

RePack

NEED FOR SPEED™ PAYBACK

1 сезон

9 сезон

Бесстыжие 9 сезон

Все сериалы

все сериалы на PB.wtf

RePack

FAR CRY 5

Anonymous, доброй ночи, мы катастрофически не успеваем собрать деньги на оплату серверов, помогите нам пожалуйста 5,10,15р., для нас важна любая помощь . В качестве благодарности мы отключим Вам всю рекламу на сайте (укажите свой ник в строку Ваше имя)!

×
  
Magnet ссылка

Форсаж 9 / F9 (Джастин Лин) [2021, Боевик, триллер, криминал, приключения, WEB-DL 1080p, (Локализованная версия)] [Театральная версия] DUB [Невафильм] pb.wtf

Форсаж 9 через торрент pb.wtf

Раздают: 1 [ 0 KB/s ]
Размер: 7.5 GB | Добавлен: 3 мес. 17 д. назад | Торрент скачан:280 раз
Смотреть онлайн Форсаж 9 | Скачать    Ребята, помогите собрать деньги на оплату серверов!!!

04-10-2021 06:36 Форсаж 9 Скачать торрент  

Форсаж 9 | F9
Театральная версия
(Локализованная версия)

Год выпуска: 2021
Страна: США, Таиланд, Канада
Студия: One Race Films, Original Film, Perfect Storm Entertainment, Roth/Kirschenbaum Films, Universal Pictures
Жанр: Боевик, триллер, криминал, приключения
Продолжительность: 02:22:52
Перевод: Дублированный | Невафильм
Субтитры: Русские (Full), английские

Режиссер: Джастин Лин

rating

В ролях: Вин Дизель, Джон Сина, Тайриз Гибсон, Лудакрис, Джордана Брюстер, Натали Эммануэль, Мишель Родригес, Хелен Миррен, Шарлиз Терон, Майкл Рукер

Описание: Доминик Торетто ведет спокойную жизнь вместе с Летти и сыном Брайаном, но новая опасность всегда где-то рядом. В этот раз Доминику придется встретиться с призраками прошлого, если он хочет спасти самых близких. Команда снова собирается вместе, чтобы предотвратить дерзкий план по захвату мира, который придумал самый опасный преступник и безбашенный водитель из всех, с кем они сталкивались ранее. Ситуация усложняется тем, что этот человек — брат Доминика Джейкоб, которого много лет назад изгнали из семьи.

Качество: WEB-DL 1080p | Локализованная версия
Формат: MKV

Видео: MPEG-4 AVC, 1920x804, 6000 Kbit/s, 23.976 fps
Аудио #01: 48 kHz, E-AC3, 5.1, 448 Kbps | Дублированный | RUS |
Аудио #02: 48 kHz, AC3, 5.1, 448 Kbps | Дублированный | RUS |
Аудио #04: 48 kHz, AC3, 5.1, 640 Kbps | Оригинал | ENG |
скриншот  скриншот  скриншот  скриншот  скриншот  

General
Unique ID : 286854498920631897507412250770146930881 (0xD7CE2ABAF6C81BE58C6C8587D1A930C1)
Complete name : E:VideoF9.The.Fast.Saga.2021.Local.WEB-DL.1080p.seleZen.mkv
Format : Matroska
Format version : Version 4
File size : 7.50 GiB
Duration : 2 h 22 min
Overall bit rate : 7 516 kb/s
Movie name : F9 The Fast Saga 2021 from seleZen
Encoded date : UTC 2021-10-03 15:35:37
Writing application : mkvmerge v59.0.0 ('Shining Star') 64-bit
Writing library : libebml v1.4.2 + libmatroska v1.6.4

Video
ID : 1
Format : AVC
Format/Info : Advanced Video Codec
Format profile : High@L4
Format settings : CABAC / 5 Ref Frames
Format settings, CABAC : Yes
Format settings, Reference frames : 5 frames
Codec ID : V_MPEG4/ISO/AVC
Duration : 2 h 22 min
Bit rate : 6 000 kb/s
Width : 1 920 pixels
Height : 804 pixels
Display aspect ratio : 2.40:1
Frame rate mode : Constant
Frame rate : 23.976 (23976/1000) FPS
Color space : YUV
Chroma subsampling : 4:2:0
Bit depth : 8 bits
Scan type : Progressive
Bits/(Pixel*Frame) : 0.162
Stream size : 5.96 GiB (80%)
Writing library : x264 core 157
Encoding settings : cabac=1 / ref=5 / deblock=1:0:0 / analyse=0x3:0x133 / me=umh / subme=10 / psy=1 / psy_rd=1.00:0.00 / mixed_ref=1 / me_range=24 / chroma_me=1 / trellis=2 / 8x8dct=1 / cqm=0 / deadzone=21,11 / fast_pskip=1 / chroma_qp_offset=-2 / threads=25 / lookahead_threads=4 / sliced_threads=0 / nr=0 / decimate=1 / interlaced=0 / bluray_compat=0 / constrained_intra=0 / bframes=8 / b_pyramid=2 / b_adapt=2 / b_bias=0 / direct=3 / weightb=1 / open_gop=0 / weightp=2 / keyint=192 / keyint_min=96 / scenecut=40 / intra_refresh=0 / rc_lookahead=60 / rc=2pass / mbtree=1 / bitrate=6000 / ratetol=1.0 / qcomp=0.60 / qpmin=0 / qpmax=69 / qpstep=4 / cplxblur=20.0 / qblur=0.5 / vbv_maxrate=6600 / vbv_bufsize=9000 / nal_hrd=none / filler=0 / ip_ratio=1.40 / aq=1:1.00
Language : Russian
Default : Yes
Forced : No

Audio #1
ID : 2
Format : E-AC-3
Format/Info : Enhanced AC-3
Commercial name : Dolby Digital Plus
Codec ID : A_EAC3
Duration : 2 h 22 min
Bit rate mode : Constant
Bit rate : 448 kb/s
Channel(s) : 6 channels
Channel layout : L R C LFE Ls Rs
Sampling rate : 48.0 kHz
Frame rate : 31.250 FPS (1536 SPF)
Compression mode : Lossy
Stream size : 458 MiB (6%)
Title : Dub [Пифагор]
Language : Russian
Service kind : Complete Main
Default : Yes
Forced : Yes

Audio #2
ID : 3
Format : AC-3
Format/Info : Audio Coding 3
Commercial name : Dolby Digital
Codec ID : A_AC3
Duration : 2 h 22 min
Bit rate mode : Constant
Bit rate : 448 kb/s
Channel(s) : 6 channels
Channel layout : L R C LFE Ls Rs
Sampling rate : 48.0 kHz
Frame rate : 31.250 FPS (1536 SPF)
Compression mode : Lossy
Stream size : 458 MiB (6%)
Title : Dub [Пифагор]
Language : Russian
Service kind : Complete Main
Default : No
Forced : No

Audio #3
ID : 4
Format : AC-3
Format/Info : Audio Coding 3
Commercial name : Dolby Digital
Codec ID : A_AC3
Duration : 2 h 22 min
Bit rate mode : Constant
Bit rate : 640 kb/s
Channel(s) : 6 channels
Channel layout : L R C LFE Ls Rs
Sampling rate : 48.0 kHz
Frame rate : 31.250 FPS (1536 SPF)
Compression mode : Lossy
Stream size : 654 MiB (9%)
Title : English
Language : English
Service kind : Complete Main
Default : No
Forced : No

Text #1
ID : 5
Format : UTF-8
Codec ID : S_TEXT/UTF8
Codec ID/Info : UTF-8 Plain Text
Duration : 2 h 12 min
Bit rate : 65 b/s
Count of elements : 1391
Stream size : 64.0 KiB (0%)
Title : Full
Language : Russian
Default : No
Forced : No

Text #2
ID : 6
Format : UTF-8
Codec ID : S_TEXT/UTF8
Codec ID/Info : UTF-8 Plain Text
Duration : 2 h 15 min
Bit rate : 47 b/s
Count of elements : 1557
Stream size : 47.2 KiB (0%)
Title : Full
Language : English
Default : No
Forced : No

pb.wtf



Скачать Форсаж 9 через торрент https://d.radikal.ru/d37/2109/09/130c7d4e86db.jpg Скачать, смотреть онлайн Форсаж 9 бесплантно в хорошем качестве Описание: Доминик Торетто ведет спокойную жизнь вместе с Летти и сыном Брайаном, но новая опасность всегда где-то рядом. В этот раз ... 10 10 11
Торрент: Зарегистрирован [2021-10-04 06:36] · скачан: 280 раз
Статус: √ проверено
Размер: 7.5 GB
Как cкачать? Как скачать Форсаж 9 через торрент | UTorrent

% Раздел Тема Автор DL S | L
Фильмы [HD 720p, 1080p] (Хороший звук DUB, MVO) [ 14.27 GB ] Форсаж 9 / F9 [2021 BDRip 1080p] [Theatrical Cut] + [Ukr DUB] killermax2013 Скачать
9 | 0
Фильмы 2021 [DVDrip, WEB-DLRip, HDrip] (DUB, MVO) [ 1.46 GB ] Форсаж 9 / F9 [2021 BDRip] - Twi7ter Скачать
62 | 1
Фильмы 2021 [DVDrip, WEB-DLRip, HDrip] (DUB, MVO) [ 2.12 GB ] Форсаж 9 / F9 [2021 BDRip] - Twi7ter Скачать
12 | 0
Фильмы 2021 [DVDrip, WEB-DLRip, HDrip] (DUB, MVO) [ 2.12 GB ] Форсаж 9 / F9 [2021 BDRip] - Twi7ter Скачать
37 | 1
Фильмы (Blu-ray, BD-Remux, HDDVD) [ 23.79 GB ] Форсаж 9 / F9 [2021 BD Remux 1080p] [Театральная версия] DUB bober100 Скачать
3 | 1
Ultra HD (UHD: 2K, 4K, 8K) — видео сверхвысокой чёткости [ 46.54 GB ] Форсаж 9 / F9 [2021 UHD BDRemux 2160p ] [Театральная версия] DUB bober100 Скачать
2 | 0
Ultra HD (UHD: 2K, 4K, 8K) — видео сверхвысокой чёткости [ 54.52 GB ] Форсаж 9 / F9 [2021 UHD BDRemux 2160p ] [Театральная версия] DUB bober100 Скачать
1 | 0

28-11-2019 20:33  

Отключить всю рекламу на сайте

04-10-2021 11:36 Форсаж 9 Скачать торрент  

семейный фильм о семьеpb.wtf



    Дорогой пользователь! Огромная просьба, поблагодарите релизера, оцените раздачу и оставьте свои комментарий, если Вы скачали Форсаж 9 через торрент бесплатно!
    Комментировать посты могут только пользователи прошедшие не сложную регистрацию
    Показать сообщения:    

    Форсаж 9 через торрент
    Скачать бесплатно Форсаж 9
    Форсаж 9 скачать торрент
    Форсаж 9 смотреть онлайн
    Cкачать фильм Форсаж 9 бесплатно
    Форсаж 9 скачать торрент в хорошем качестве
    Форсаж 9 смотреть онлайн бесплатно в хорошем качестве


    Вы не можете начинать темы
    Вы не можете отвечать на сообщения
    Вы не можете редактировать свои сообщения
    Вы не можете удалять свои сообщения
    Вы не можете голосовать в опросах
    Вы не можете прикреплять файлы к сообщениям
    Вы можете скачивать файлы