Присоединяйтесь к нам в Telegram!, здесь всегда актуальный адрес сайта, оперативная поддержка и многое другое!!

>

5.9

iTunes

7.4

iTunes

9.4

1 сезон

1

7.4

2 сезон

7.2

iTunes

7.3

1 сезон

13

6.1

iTunes

8.3

GOG

30

ULTIMATE

pack

9.9

Лицензия

ВАЖНО

ИГРА 18+

pack

7.3

RePack

MK11

7.7

RePack

jed

7.8

RePack

fifa19

8.5

RePack

RDR2

RePack

NEED FOR SPEED™ PAYBACK

5 сезон

9 сезон

Бесстыжие 9 сезон

Все сериалы

все сериалы на PB.wtf

RePack

FAR CRY 5

Anonymous, добрый вечер, мы катастрофически не успеваем собрать деньги на оплату серверов, помогите нам пожалуйста 5,10,15р., для нас важна любая помощь . В качестве благодарности мы отключим Вам всю рекламу на сайте (укажите свой ник в строку Ваше имя)!

×
  
Magnet ссылка

Холодный расчет / The Card Counter (Пол Шредер) [2021, Боевик, Триллер, Драма, Криминал, WEB-DLRip-AVC] [DUB] [iTunes] pb.wtf

Холодный расчет через торрент pb.wtf

Раздают: 1 [ 0.3 KB/s ]
Размер: 1.86 GB | Добавлен: 1 мес. 17 д. назад | Торрент скачан:56 раз
Смотреть онлайн Холодный расчет | Скачать    Ребята, помогите собрать деньги на оплату серверов!!!

04-10-2021 09:07 Холодный расчет Скачать торрент  

Холодный расчет / The Card Counter Год выпуска: 2021
Жанр: Боевик, Триллер, Драма, Криминал
Выпущено: США, Великобритания, Китай
Продолжительность: 01:51:53
Перевод: Дублированный iTunes
Субтитры: Русские (full), английские

Режиссер: Пол Шредер

В ролях: Оскар Айзек, Тиффани Хэддиш, Тай Шеридан, Александр Бабара, Бобби С. Кинг, Екатерина Бэйкер, Дилан Флэшнер, Эдриэнн Лау, Джоэль Майкли

О фильме:

Главное в покере — сохранять хладнокровие и считать на несколько ходов вперёд. Именно этими навыками Уильям овладел в совершенстве, когда решил начать новую жизнь. Теперь он уверенно идет к участию в Мировой серии и большим деньгам, понимая, что это его возможность оставить позади тайны своего прошлого. Но когда судьба подкидывает ему шанс на возмездие, Уильям оказывается втянут в игру, где на кону стоит нечто большее, чем деньги.

rating

Качество: WEB-DLRip-AVC
Формат: Matroska
Видео: 1024x576 at 23.976 fps, x264@L4.1, ~2000 kbps
Аудио 1: AC3, 6 ch, 384 Кбит/с | RUS |
Аудио 2: AC3, 6 ch, ~448 kbps - | Английский |
Формат субтитров: softsub (SRT)

***Релиз от: -=DoMiNo=-
скриншот   скриншот   скриншот  
x264 info: frame I:1000 Avg QP:15.15 size: 73328
x264 info: frame P:34968 Avg QP:16.82 size: 25373
x264 info: frame B:124996 Avg QP:18.27 size: 5713

General
Unique ID : 328400244895949828473910750047369503031 (0xF70F96276A2C144D0726117DFEE52137)
Complete name : G:The.Card.Counter.(2021).WEB-DLRip-AVC.mkv
Format : Matroska
Format version : Version 4
File size : 1.86 GiB
Duration : 1 h 51 min
Overall bit rate : 2 384 kb/s
Encoded date : UTC 2021-10-09 17:18:11
Writing application : mkvmerge v61.0.0 ('So') 64-bit
Writing library : libebml v1.4.2 + libmatroska v1.6.4
Cover : Yes
Attachments : Cover.jpg / Cover 2.jpg

Video
ID : 1
Format : AVC
Format/Info : Advanced Video Codec
Format profile : High@L4.1
Format settings : CABAC / 12 Ref Frames
Format settings, CABAC : Yes
Format settings, Reference : 12 frames
Codec ID : V_MPEG4/ISO/AVC
Duration : 1 h 51 min
Bit rate : 2 000 kb/s
Width : 1 024 pixels
Height : 576 pixels
Display aspect ratio : 16:9
Frame rate mode : Constant
Frame rate : 23.976 (24000/1001) FPS
Color space : YUV
Chroma subsampling : 4:2:0
Bit depth : 8 bits
Scan type : Progressive
Bits/(Pixel*Frame) : 0.141
Stream size : 1.56 GiB (84%)
Title : -=DoMiNo=-
Writing library : x264 core 161 r3020 d198931
Encoding settings : cabac=1 / ref=12 / deblock=1:-3:-3 / analyse=0x3:0x133 / me=umh / subme=9 / psy=1 / psy_rd=1.00:0.08 / mixed_ref=1 / me_range=32 / chroma_me=1 / trellis=2 / 8x8dct=1 / cqm=0 / deadzone=21,11 / fast_pskip=0 / chroma_qp_offset=-3 / threads=24 / lookahead_threads=4 / sliced_threads=0 / nr=0 / decimate=0 / interlaced=0 / bluray_compat=0 / constrained_intra=0 / bframes=11 / b_pyramid=2 / b_adapt=2 / b_bias=0 / direct=3 / weightb=1 / open_gop=0 / weightp=2 / keyint=240 / keyint_min=24 / scenecut=40 / intra_refresh=0 / rc=2pass / mbtree=0 / bitrate=2000 / ratetol=1.0 / qcomp=0.60 / qpmin=0 / qpmax=69 / qpstep=4 / cplxblur=20.0 / qblur=0.5 / ip_ratio=1.40 / pb_ratio=1.30 / aq=1:1.00
Language : English
Default : Yes
Forced : No
Color range : Limited
Color primaries : BT.709
Transfer characteristics : BT.709
Matrix coefficients : BT.709

Audio
ID : 2
Format : AC-3
Format/Info : Audio Coding 3
Commercial name : Dolby Digital
Codec ID : A_AC3
Duration : 1 h 51 min
Bit rate mode : Constant
Bit rate : 384 kb/s
Channel(s) : 6 channels
Channel layout : L R C LFE Ls Rs
Sampling rate : 48.0 kHz
Frame rate : 31.250 FPS (1536 SPF)
Compression mode : Lossy
Stream size : 307 MiB (16%)
Title : DUB
Language : Russian
Service kind : Complete Main
Default : Yes
Forced : Yes

Text #1
ID : 3
Format : UTF-8
Codec ID : S_TEXT/UTF8
Codec ID/Info : UTF-8 Plain Text
Duration : 1 h 44 min
Bit rate : 69 b/s
Count of elements : 1349
Stream size : 52.8 KiB (0%)
Language : Russian
Default : No
Forced : No

Text #2
ID : 4
Format : UTF-8
Codec ID : S_TEXT/UTF8
Codec ID/Info : UTF-8 Plain Text
Duration : 1 h 42 min
Bit rate : 48 b/s
Count of elements : 1351
Stream size : 36.2 KiB (0%)
Language : English
Default : No
Forced : No

Text #3
ID : 5
Format : UTF-8
Codec ID : S_TEXT/UTF8
Codec ID/Info : UTF-8 Plain Text
Duration : 1 h 50 min
Bit rate : 54 b/s
Count of elements : 1655
Stream size : 43.8 KiB (0%)
Title : SDH
Language : English
Default : No
Forced : No
pb.wtf



Скачать Холодный расчет через торрент https://i115.fastpic.org/big/2021/1004/05/6d8a087a366481914cdb1cd8ac86b005.jpg Скачать, смотреть онлайн Холодный расчет бесплантно в хорошем качестве О фильме: Главное в покере — сохранять хладнокровие и считать на несколько ходов вперёд. Именно этими навыками Уильям овладел в ... 8.3 10 7
Торрент: Зарегистрирован [2021-10-13 15:08] · скачан: 56 раз
Статус: √ проверено
Размер: 1.86 GB
Как cкачать? Как скачать Холодный расчет через торрент | UTorrent

% Раздел Тема Автор DL S | L
Фильмы (WEB-DL 720p, 1080p) [ 3.95 GB ] Холодный расчет / The Card Counter [2021 WEB-DL 1080p] bober100 Скачать
6 | 0
Ultra HD (UHD: 2K, 4K, 8K) — видео сверхвысокой чёткости [ 12.01 GB ] Холодный расчет / The Card Counter [2021 UHD WEB-DL-HEVC 2160p] bober100 Скачать
4 | 0
Фильмы 2021 [DVDrip, WEB-DLRip, HDrip] (DUB, MVO) [ 1.46 GB ] Холодный расчет / The Card Counter [2021 WEB-DLRip] bober100 Скачать
4 | 0
T Фильмы 2021 [DVDrip, WEB-DLRip, HDrip] (DUB, MVO) [ 2.18 GB ] Холодный расчет / The Card Counter [2021 WEB-DLRip-AVC] DVO [Pazl Voice] от MediaBit Lithuania Скачать
6 | 0

28-11-2019 20:33  

Отключить всю рекламу на сайте

    Дорогой пользователь! Огромная просьба, поблагодарите релизера, оцените раздачу и оставьте свои комментарий, если Вы скачали Холодный расчет через торрент бесплатно!
    Комментировать посты могут только пользователи прошедшие не сложную регистрацию
    Показать сообщения:    

    Холодный расчет через торрент
    Скачать бесплатно Холодный расчет
    Холодный расчет скачать торрент
    Холодный расчет смотреть онлайн
    Cкачать фильм Холодный расчет бесплатно
    Холодный расчет скачать торрент в хорошем качестве
    Холодный расчет смотреть онлайн бесплатно в хорошем качестве


    Вы не можете начинать темы
    Вы не можете отвечать на сообщения
    Вы не можете редактировать свои сообщения
    Вы не можете удалять свои сообщения
    Вы не можете голосовать в опросах
    Вы не можете прикреплять файлы к сообщениям
    Вы можете скачивать файлы