Присоединяйтесь к нам в Telegram!, здесь всегда актуальный адрес сайта, оперативная поддержка и многое другое!!

>

5.9

iTunes

7.4

iTunes

9.4

1 сезон

1

7.4

2 сезон

7.2

iTunes

7.3

1 сезон

13

6.1

iTunes

8.3

GOG

30

ULTIMATE

pack

9.9

Лицензия

ВАЖНО

ИГРА 18+

pack

7.3

RePack

MK11

7.7

RePack

jed

7.8

RePack

fifa19

8.5

RePack

RDR2

RePack

NEED FOR SPEED™ PAYBACK

5 сезон

9 сезон

Бесстыжие 9 сезон

Все сериалы

все сериалы на PB.wtf

RePack

FAR CRY 5

Anonymous, добрый вечер, мы катастрофически не успеваем собрать деньги на оплату серверов, помогите нам пожалуйста 5,10,15р., для нас важна любая помощь . В качестве благодарности мы отключим Вам всю рекламу на сайте (укажите свой ник в строку Ваше имя)!

×
  
Magnet ссылка

Портал / Двери / Doors (Джефф Дэсом, Саман Кешаварц, Дуган О’Нил) [2021, Фантастика, HDRip-AVC] DUB [iTunes] от MediaBit pb.wtf

Портал через торрент pb.wtf

Раздают: 2 [ 0 KB/s ]
Размер: 1.8 GB | Добавлен: 1 мес. 25 д. назад | Торрент скачан:72 раза
Смотреть онлайн Портал | Скачать    Ребята, помогите собрать деньги на оплату серверов!!!

05-10-2021 18:00 Портал Скачать торрент  


Портал / Двери / Doors
Информация о фильме:
Название: Портал / Двери
Оригинальное название: Doors
Год выхода: 2021
Жанр: Фантастика
Режиссер: Джефф Дэсом, Саман Кешаварц, Дуган О’Нил
В ролях: Джош Пек, Лина Эско, Уилсон Бетел, Кип Мэлоун, Рори Энн Даль, Джулианна Коллинз, Джордан Рок, Дэвид Хэмпхилл, Дариус Левант, Арик Флойд

Описание: Миллионы загадочных внеземных дверей внезапно появляются по всему миру. Правительство, ученые и даже обычные граждане пытаются определить причину их прибытия и понять цель этих сверхъестественных аномалий. Причудливые происшествия заставляют людей задуматься не только о собственном существовании, но так же об измененной реальности, с которой они сталкиваются по ту сторону дверей.



Страна: США
Студия: Bloody Disgusting, BoulderLight Pictures
Продолжительность: 01:24:04
Перевод: Профессиональный (полное дублирование) - iTunes



Информация о файле:
Кодек: AVC
Формат: MKV
Качество: HDRip-AVC
Видео: MPEG-4 AVC, 1024x436, 23.976 fps, 2168 kbps
Аудио RU: AC3, 6 ch, 48 kHz, 384 kbps
Аудио EN: AC3, 6 ch, 48 kHz, 448 kbps
Субтитры: Русские

x264 info: frame I:957 Avg QP:12.97 size: 81608
x264 info: frame P:27331 Avg QP:17.27 size: 26418
x264 info: frame B:92638 Avg QP:21.03 size: 6089
x264 info: consecutive B-frames: 3.2% 3.5% 10.0% 15.4% 14.2% 42.7% 5.5% 1.4% 1.2% 0.6% 0.4% 0.6% 1.5%
General
Unique ID : 62009908168540785886797067406552971537 (0x2EA6AC84A5EA8FCEDD1AEF672659B911)
Complete name : D:\uTorrent\Рипы wolf1245\Doors.2021.DUB.iTunes.HDRip-AVC.[wolf1245.MediaBit].mkv
Format : Matroska
Format version : Version 4
File size : 1.80 GiB
Duration : 1 h 24 min
Overall bit rate : 3 062 kb/s
Movie name : Doors.2021.DUB.iTunes.HDRip-AVC.[wolf1245.MediaBit]
Encoded date : UTC 2021-10-05 17:54:49
Writing application : mkvmerge v61.0.0 ('So') 64-bit
Writing library : libebml v1.4.2 + libmatroska v1.6.4
Cover : Yes
Attachments : cover.jpg

Video
ID : 1
Format : AVC
Format/Info : Advanced Video Codec
Format profile : High@L4.1
Format settings : CABAC / 14 Ref Frames
Format settings, CABAC : Yes
Format settings, Reference frames : 14 frames
Codec ID : V_MPEG4/ISO/AVC
Duration : 1 h 24 min
Bit rate : 2 168 kb/s
Width : 1 024 pixels
Height : 436 pixels
Display aspect ratio : 2.35:1
Frame rate mode : Constant
Frame rate : 23.976 (24000/1001) FPS
Color space : YUV
Chroma subsampling : 4:2:0
Bit depth : 8 bits
Scan type : Progressive
Bits/(Pixel*Frame) : 0.203
Stream size : 1.27 GiB (71%)
Title : [wolf1245.MediaBit]
Writing library : x264 core 161 r3020 d198931
Encoding settings : cabac=1 / ref=14 / deblock=1:-3:-3 / analyse=0x3:0x133 / me=umh / subme=11 / psy=1 / psy_rd=1.00:0.07 / mixed_ref=1 / me_range=48 / chroma_me=1 / trellis=2 / 8x8dct=1 / cqm=0 / deadzone=21,11 / fast_pskip=1 / chroma_qp_offset=-3 / threads=10 / lookahead_threads=2 / sliced_threads=0 / nr=0 / decimate=1 / interlaced=0 / bluray_compat=0 / constrained_intra=0 / bframes=12 / b_pyramid=2 / b_adapt=2 / b_bias=0 / direct=3 / weightb=1 / open_gop=0 / weightp=2 / keyint=240 / keyint_min=24 / scenecut=40 / intra_refresh=0 / rc_lookahead=60 / rc=2pass / mbtree=1 / bitrate=2168 / ratetol=1.0 / qcomp=0.60 / qpmin=0 / qpmax=69 / qpstep=4 / cplxblur=20.0 / qblur=0.5 / vbv_maxrate=50000 / vbv_bufsize=62500 / nal_hrd=none / filler=0 / ip_ratio=1.40 / aq=3:0.80
Language : German
Default : Yes
Forced : No

Audio #1
ID : 2
Format : AC-3
Format/Info : Audio Coding 3
Commercial name : Dolby Digital
Codec ID : A_AC3
Duration : 1 h 24 min
Bit rate mode : Constant
Bit rate : 448 kb/s
Channel(s) : 6 channels
Channel layout : L R C LFE Ls Rs
Sampling rate : 48.0 kHz
Frame rate : 31.250 FPS (1536 SPF)
Compression mode : Lossy
Stream size : 269 MiB (15%)
Title : iTunes | DUB
Language : Russian
Service kind : Complete Main
Default : Yes
Forced : No

Audio #2
ID : 3
Format : AC-3
Format/Info : Audio Coding 3
Commercial name : Dolby Digital
Codec ID : A_AC3
Duration : 1 h 24 min
Bit rate mode : Constant
Bit rate : 448 kb/s
Channel(s) : 6 channels
Channel layout : L R C LFE Ls Rs
Sampling rate : 48.0 kHz
Frame rate : 31.250 FPS (1536 SPF)
Compression mode : Lossy
Stream size : 269 MiB (15%)
Title : Original
Language : English
Service kind : Complete Main
Default : No
Forced : No

Text #1
ID : 4
Format : UTF-8
Codec ID : S_TEXT/UTF8
Codec ID/Info : UTF-8 Plain Text
Duration : 1 h 18 min
Bit rate : 4 b/s
Count of elements : 55
Stream size : 2.32 KiB (0%)
Title : Forced
Language : Russian
Default : Yes
Forced : No

Text #2
ID : 5
Format : UTF-8
Codec ID : S_TEXT/UTF8
Codec ID/Info : UTF-8 Plain Text
Duration : 1 h 19 min
Bit rate : 85 b/s
Count of elements : 1024
Stream size : 49.7 KiB (0%)
Title : Full
Language : Russian
Default : No
Forced : No

Menu
00:00:00.000 : :Chapter
00:10:46.646 : :Chapter
00:23:23.402 : :Chapter
00:33:33.011 : :Chapter
00:42:17.535 : :Chapter
00:54:42.279 : :Chapter
01:04:16.853 : :Chapter
01:11:26.282 : :Chapter
01:19:01.737 : :Chapter
Релиз от: &

Автор релиза:
pb.wtf



Скачать Портал через торрент https://i115.fastpic.org/big/2021/1005/5a/14f553f82b66062833704cb8733d5c5a.jpg Скачать, смотреть онлайн Портал бесплантно в хорошем качестве Описание: Миллионы загадочных внеземных дверей внезапно появляются по всему миру. Правительство, ученые и даже обычные граждане пытаются ... 7 10 3
Торрент: Зарегистрирован [2021-10-05 18:00] · скачан: 72 раз
Статус: √ проверено
Размер: 1.8 GB
Как cкачать? Как скачать Портал через торрент | UTorrent

28-11-2019 20:33  

Отключить всю рекламу на сайте

    Дорогой пользователь! Огромная просьба, поблагодарите релизера, оцените раздачу и оставьте свои комментарий, если Вы скачали Портал через торрент бесплатно!
    Комментировать посты могут только пользователи прошедшие не сложную регистрацию
    Показать сообщения:    

    Портал через торрент
    Скачать бесплатно Портал
    Портал скачать торрент
    Портал смотреть онлайн
    Cкачать фильм Портал бесплатно
    Портал скачать торрент в хорошем качестве
    Портал смотреть онлайн бесплатно в хорошем качестве


    Вы не можете начинать темы
    Вы не можете отвечать на сообщения
    Вы не можете редактировать свои сообщения
    Вы не можете удалять свои сообщения
    Вы не можете голосовать в опросах
    Вы не можете прикреплять файлы к сообщениям
    Вы можете скачивать файлы