Anonymous, добрый день, присоединяйтесь к нам в Telegram!, здесь всегда актуальный адрес сайта, оперативная поддержка и многое другое!

>

5.6

iTunes

7.4

iTunes

7.9

MVO

1

7.7

1 сезон

6.8

iTunes

7.3

1 сезон

13

6.7

1 сезон

8.3

RePack

30

ULTIMATE

pack

9.9

Лицензия

ВАЖНО

ИГРА 18+

pack

7.3

RePack

MK11

7.7

RePack

jed

7.8

RePack

fifa19

8.5

RePack

RDR2

RePack

NEED FOR SPEED™ PAYBACK

4 сезон

9 сезон

Бесстыжие 9 сезон

Все сериалы

все сериалы на PB.wtf

RePack

FAR CRY 5

Anonymous, добрый день, мы катастрофически не успеваем собрать деньги на оплату серверов, помогите нам пожалуйста 5,10,15р., для нас важна любая помощь . В качестве благодарности мы отключим Вам всю рекламу на сайте (укажите свой ник в строку Ваше имя)!

×
  
Magnet ссылка

Пингвины моей мамы / Быть комиком / Сезон: 1 / Серии: 1-5 из 7 (Наталия Мещанинова) [2021 г., Драма, Комедия, WEBRip] pb.wtf

Пингвины моей мамы через торрент pb.wtf

Раздают: 1 [ 148 KB/s ]
Размер: 1.98 GB | Добавлен: 14 ч. назад | Торрент скачан:5 раз
Смотреть онлайн Пингвины моей мамы | Скачать    Ребята, помогите собрать деньги на оплату серверов!!!

05-10-2021 23:07 Пингвины моей мамы Скачать торрент  

Пингвины моей мамы / Быть комиком
Год выпуска: 2021
Страна: Россия
Студия: МТС Медиа, Look Film
Жанр:Драма, Комедия
Продолжительность: ~ 00:45:00
Субтитры: Отсутствуют

Режиссер: Наталия Мещанинова



В ролях: Макар Хлебников, Алексей Агранович, Александра Урсуляк, Надежда Иванова, Павел Попов, Герман Сегал, Виталий Щербина, Никита Москвитин, Кирилл Митрофанов, Платон Саввин, Ирина Бакина, Алексей Каркушко, Михаил Кострецов, Александр Жоголев, Александр Присмотров-Белов, Заур Гюльахмедов, Александр Малой, Евгений Сидоров (II), Андрей Максимов (III), Степан Девонин, Денис Власенко, Дарья Савельева, Батраз Засеев

Описание: У 15-летнего школьника Гоши из Москвы много проблем: стычки в школе, несчастная любовь и непонимание в семье. Родители Гоши одержимы идеей спасти всех детей, оставшихся без семьи и дома, они уже усыновили трех детей и готовятся принять в семью четвертого. Гоше кажется, что в родном доме и в сердце родителей для него нет места. Выступления в стэндап-клубе для Гоши единственная отдушина, попытка поговорить о своих проблемах и найти выход. Для родителей Гоши шокирующая публичная откровенность сына также станет семейной психотерапией и поможет осознать свои проблемы.

Качество: WEBRip
Формат: AVI
Видео кодек: XviD
Аудио кодек: AC3
Видео: 1650 Кбит/сек, 720*400 (16:9), в 25,000 кадров/сек, MPEG-4 Visual (XviD)
Аудио 1: 192 Кбит/сек, 48,0 КГц, 16 бит, 2 канала, AC-3 - (с цензурой)
Аудио 2: 192 Кбит/сек, 48,0 КГц, 16 бит, 2 канала, AC-3 - (без цензуры, 18+). Внимание! Присутствует ненормативная лексика.
Общее
Полное имя : G:\Pingviny.moey.mamy.2021.WEB-DLRip.25Kuzmich\Pingviny.moey.mamyt.e01.WEB-DLRip.25Kuzmich.avi
Формат : AVI
Формат/Информация : Audio Video Interleave
Размер файла : 603 Мбайт
Продолжительность : 41 м. 11 с.
Общий поток : 2048 Кбит/сек
Программа кодирования : VirtualDubMod 1.5.10.3 (build 2550/release)
Библиотека кодирования : VirtualDubMod build 2550/release

Видео
Идентификатор : 0
Формат : MPEG-4 Visual
Профиль формата : Advanced Simple@L5
Настройки формата : BVOP1
Параметр BVOP формата : 1
Параметр QPel формата : Нет
Параметр GMC формата : Без точки перехода
Параметр матрицы формата : Default (MPEG)
Идентификатор кодека : XVID
Идентификатор кодека/Подсказка : XviD
Продолжительность : 41 м. 11 с.
Битрейт : 1650 Кбит/сек
Ширина : 720 пикселей
Высота : 400 пикселей
Соотношение сторон : 16:9
Частота кадров : 25,000 кадров/сек
Цветовое пространство : YUV
Субдискретизация насыщенности : 4:2:0
Битовая глубина : 8 бит
Тип развёртки : Прогрессивная
Метод сжатия : С потерями
Бит/(Пиксели*Кадры) : 0.229
Размер потока : 486 Мбайт (81%)
Библиотека кодирования : XviD 73

Аудио #1
Идентификатор : 1
Формат : AC-3
Формат/Информация : Audio Coding 3
Коммерческое название : Dolby Digital
Идентификатор кодека : 2000
Продолжительность : 41 м. 11 с.
Вид битрейта : Постоянный
Битрейт : 192 Кбит/сек
Каналы : 2 канала
ChannelLayout : L R
Частота : 48,0 КГц
Частота кадров : 31,250 кадров/сек (1536 SPF)
Битовая глубина : 16 бит
Метод сжатия : С потерями
Размер потока : 56,6 Мбайт (9%)
Выравнивание : Разделение по промежуткам
Продолжительность промежутка : 40 мс. (1,00 видеокадр)
Время предзагрузки промежутка : 500 мс.
ServiceKind/String : Complete Main

Аудио #2
Идентификатор : 2
Формат : AC-3
Формат/Информация : Audio Coding 3
Коммерческое название : Dolby Digital
Идентификатор кодека : 2000
Продолжительность : 41 м. 11 с.
Вид битрейта : Постоянный
Битрейт : 192 Кбит/сек
Каналы : 2 канала
ChannelLayout : L R
Частота : 48,0 КГц
Частота кадров : 31,250 кадров/сек (1536 SPF)
Битовая глубина : 16 бит
Метод сжатия : С потерями
Размер потока : 56,6 Мбайт (9%)
Выравнивание : Разделение по промежуткам
Продолжительность промежутка : 40 мс. (1,00 видеокадр)
Время предзагрузки промежутка : 500 мс.
ServiceKind/String : Complete Main
Внимание! Раздача ведётся путём добавления новых серий; при каждом добавлении создаётся новый торрент. Чтобы начать докачку новой серии, пользователям необходимо сделать следующее:
(1) остановить скачивание,
(2) удалить старый торрент у себя из клиента (старые серии удалять не надо),
(3) скачать новый торрент и запустить его у себя в клиенте вместо старого, при этом указать клиенту путь в старую папку куда и должно происходить скачивание новых серий.

Ваш клиент при этом должен произвести хеширование (проверку) старой папки (если не производит сам - помогите ему сделать это), и будет докачивать только те серии которых у вас ещё нет. Старые серии при этом не удаляются, а продолжают раздаваться!

Eсли вы уже удалили старые серии, то предотвратить повторную закачку старых серий можно, отжав галочку в соответствующих местах при запуске нового торрента. По возможности, желательно не удалять старые серии как можно дольше чтобы релизёр не столько продолжал раздавать старые серии, а смог сконцентрироваться на новых.


Скриншоты:
скриншот   скриншот   скриншот   скриншот   скриншот   скриншот   скриншот   
скриншот  
pb.wtf



Скачать Пингвины моей мамы через торрент https://pic1.kartinco.top/new/img/2021-10/06/a6eks65alithx79gujrw5yp4l.jpg Скачать, смотреть онлайн Пингвины моей мамы бесплантно в хорошем качестве Описание: У 15-летнего школьника Гоши из Москвы много проблем: стычки в школе, несчастная любовь и непонимание в семье. Родители Гоши ... 10 10 1
Торрент: Зарегистрирован [2021-10-19 23:07] · скачан: 5 раз
Статус: √ проверено
Размер: 1.98 GB
Как cкачать? Как скачать Пингвины моей мамы через торрент | UTorrent

28-11-2019 20:33  

Отключить всю рекламу на сайте

    Дорогой пользователь! Огромная просьба, поблагодарите релизера, оцените раздачу и оставьте свои комментарий, если Вы скачали Пингвины моей мамы через торрент бесплатно!
    Комментировать посты могут только пользователи прошедшие не сложную регистрацию
    Показать сообщения:    

    Пингвины моей мамы через торрент
    Скачать бесплатно Пингвины моей мамы
    Пингвины моей мамы скачать торрент
    Пингвины моей мамы смотреть онлайн
    Cкачать фильм Пингвины моей мамы бесплатно
    Пингвины моей мамы скачать торрент в хорошем качестве
    Пингвины моей мамы смотреть онлайн бесплатно в хорошем качестве


    Вы не можете начинать темы
    Вы не можете отвечать на сообщения
    Вы не можете редактировать свои сообщения
    Вы не можете удалять свои сообщения
    Вы не можете голосовать в опросах
    Вы не можете прикреплять файлы к сообщениям
    Вы можете скачивать файлы