Anonymous, добрый вечер, присоединяйтесь к нам в Telegram!, здесь всегда актуальный адрес сайта, оперативная поддержка и многое другое!

>

5.6

iTunes

7.4

iTunes

7.9

MVO

1

7.7

1 сезон

6.8

iTunes

7.3

1 сезон

13

6.7

1 сезон

8.3

RePack

30

ОНЛАЙН

pack

9.9

Лицензия

ВАЖНО

ИГРА 18+

pack

7.3

RePack

MK11

7.7

RePack

jed

7.8

RePack

fifa19

8.5

RePack

RDR2

RePack

NEED FOR SPEED™ PAYBACK

4 сезон

9 сезон

Бесстыжие 9 сезон

Все сериалы

все сериалы на PB.wtf

RePack

FAR CRY 5

Anonymous, добрый вечер, мы катастрофически не успеваем собрать деньги на оплату серверов, помогите нам пожалуйста 5,10,15р., для нас важна любая помощь . В качестве благодарности мы отключим Вам всю рекламу на сайте (укажите свой ник в строку Ваше имя)!

×
  
Magnet ссылка

Что? Где? Когда? Осенняя серия игр /1-3 игра из 5 (Продюсерский центр "ИГРА-ТВ") [2021 г., интеллектуальное шоу, HDTVRip, Оригинальный] pb.wtf

Что? Где? Когда? Осенняя серия игр через торрент pb.wtf

Раздают: 1 [ 0 KB/s ] Качают: 1 [ 0 KB/s ]
Размер: 2.05 GB | Добавлен: 1 д. 6 ч. назад | Торрент скачан:2 раза
Смотреть онлайн Что? Где? Когда? Осенняя серия игр | Скачать    Ребята, помогите собрать деньги на оплату серверов!!!

06-10-2021 07:52 Что? Где? Когда? Осенняя серия игр Скачать торрент  

Что? Где? Когда? Осенняя серия игр
Год выпуска: 2021
Страна: Россия
Жанр: интеллектуальное шоу
Продолжительность: 3 х ~ 01:09:00
Перевод: Оригинальный
Субтитры: нет

Режиссер: Продюсерский центр "ИГРА-ТВ"

Описание: Интеллектуальная викторина, наиболее распространённая в русскоязычной среде. Была создана в 1975 г. телеведущим Владимиром Ворошиловым. Игра очень быстро стала настолько популярной, что кроме оригинальной телевизионной версии появилась спортивная версия игры. Сущность игры заключается в противостоянии команды Знатоков (игровой команды из шести человек) команде Телезрителей. Знатоки должны за одну минуту при помощи мозгового штурма найти ответ на вопрос, присланный телезрителем. Как правило, игрокам задаются вопросы, ответить на которые можно с помощью общих знани

Качество: HDTVRip
Формат: MKV
Видео кодек: AVC
Аудио кодек: AC3
Видео: MPEG-4 AVC, (720x404),1372 Кбит/с, 25.000 кадра/сек
Аудио#1: AC3, 2 ch, 192 kbps (Rus) 48.0 KHz Оригинал
скриншот   скриншот   скриншот  

: Имя файла: 01.ЧГК 2021.mkv
Формат файла: .mkv Размер файла: 810,05 MB (849 394 974 bytes)
Длительность: 1 h 9 min
Навигация по главам: Нет
Битрейт (все потоки): 1 639 kb/s
Файл создан: UTC 2021-10-03 22:16:12
Создан при помощи: mkvmerge v7.8.0 ('River Man') 32bit built on Apr 3 2015 12:11:22
Обложка: Отсутствует
:
Название: 01.ЧГК 2021
Видео
Длительность: 01:09:04
Кодек: AVC
Кодек/описание: Advanced Video Codec
Кодек/профиль: High@L3.1
Кодек/ID: V_MPEG4/ISO/AVC
Кодек/CABAC: Yes
Кодек/ReFrames: 8 frames
Размеры изображения: 720 x 404 (16:9)
Частота кадров: 25.000 FPS
Частота кадров/тип: Constant
Размер потока: 699 MiB (86%)
Битрейт: 1 415 kb/s
Библиотека кодирования: x264 core 146 r2538 121396c
Цветовое пространство: YUV
Тип развёртки: Progressive
Колориметрия: 4:2:0
Глубина: 8 bits

Тип потока: Звук #1
Длительность: 01:09:00
Кодек: AC-3
Кодек/описание: Audio Coding 3
Кодек/ID: A_AC3
Частота дискретизации: 48.0 kHz
Каналов: 2 channels
Битрейт: 192 kb/s
Битрейт/тип: Constant
Размер потока: 94.9 MiB (12%)
Метод сжатия: Lossy

Раздача ведётся путём добавления новых серий, при каждом добавлении создаётся новый торрент. Чтобы начать докачку новой серии, пользователям необходимо сделать следующее:

- Остановить скачивание.
- Удалить старый торрент у себя из клиента (старые серии удалять не надо).
- Скачать новый торрент и запустить его у себя в клиенте вместо старого, при этом указать клиенту путь в старую папку куда и должно происходить скачивание новых серий.

Ваш клиент при этом должен произвести хеширование (проверку) старой папки (если не производит сам - помогите ему сделать это), и будет докачивать только те серии которых у вас ещё нет. Старые серии при этом не удаляются, а продолжают раздаваться!
Если вы уже удалили старые серии, то предотвратить повторную закачку старых серий можно, отжав галочку в соответствующих местах при запуске нового торрента. По возможности, желательно не удалять старые серии как можно дольше, чтобы релизер не столько продолжал раздавать старые серии, а смог сконцентрироваться на новых.
ДОБАВЛЕНА 01-03 ИГРА ПЕРЕЗАЛЕЙТЕ ТОРРЕНТ ФАИЛpb.wtf



Скачать Что? Где? Когда? Осенняя серия игр через торрент https://pic1.kartinco.top/new/img/2021-10/06/xkpo0z9udu7cbnpn7mfjt8ygy.jpg Скачать, смотреть онлайн Что? Где? Когда? Осенняя серия игр бесплантно в хорошем качестве Описание: Интеллектуальная викторина, наиболее распространённая в русскоязычной среде. Была создана в 1975 г. телеведущим Владимиром ... 10 10 3
Торрент: Зарегистрирован [2021-10-19 08:11] · скачан: 2 раз
Статус: √ проверено
Размер: 2.05 GB
Как cкачать? Как скачать Что? Где? Когда? Осенняя серия игр через торрент | UTorrent

28-11-2019 20:33  

Отключить всю рекламу на сайте

19-10-2021 09:07 Что? Где? Когда? Осенняя серия игр Скачать торрент  

Да ура наконецто Хотя зря неплохо проиграли игру.стоит знатокм готовиться.спасибо за раздачуpb.wtf



    Дорогой пользователь! Огромная просьба, поблагодарите релизера, оцените раздачу и оставьте свои комментарий, если Вы скачали Что? Где? Когда? Осенняя серия игр через торрент бесплатно!
    Комментировать посты могут только пользователи прошедшие не сложную регистрацию
    Показать сообщения:    

    Что? Где? Когда? Осенняя серия игр через торрент
    Скачать бесплатно Что? Где? Когда? Осенняя серия игр
    Что? Где? Когда? Осенняя серия игр скачать торрент
    Что? Где? Когда? Осенняя серия игр смотреть онлайн
    Cкачать фильм Что? Где? Когда? Осенняя серия игр бесплатно
    Что? Где? Когда? Осенняя серия игр скачать торрент в хорошем качестве
    Что? Где? Когда? Осенняя серия игр смотреть онлайн бесплатно в хорошем качестве


    Вы не можете начинать темы
    Вы не можете отвечать на сообщения
    Вы не можете редактировать свои сообщения
    Вы не можете удалять свои сообщения
    Вы не можете голосовать в опросах
    Вы не можете прикреплять файлы к сообщениям
    Вы можете скачивать файлы