Присоединяйтесь к нам в Telegram!, здесь всегда актуальный адрес сайта, оперативная поддержка и многое другое!!

>

5.9

iTunes

7.4

iTunes

9.4

1 сезон

1

7.4

2 сезон

7.2

iTunes

7.3

1 сезон

13

6.1

iTunes

8.3

Пиратка

30

ULTIMATE

pack

9.9

Лицензия

ВАЖНО

ИГРА 18+

pack

7.3

RePack

MK11

7.7

RePack

jed

7.8

RePack

fifa19

8.5

RePack

RDR2

RePack

NEED FOR SPEED™ PAYBACK

5 сезон

9 сезон

Бесстыжие 9 сезон

Все сериалы

все сериалы на PB.wtf

RePack

FAR CRY 5

Anonymous, доброй ночи, мы катастрофически не успеваем собрать деньги на оплату серверов, помогите нам пожалуйста 5,10,15р., для нас важна любая помощь . В качестве благодарности мы отключим Вам всю рекламу на сайте (укажите свой ник в строку Ваше имя)!

×
  
Magnet ссылка

Адское бинго / Bingo Hell (Гиги Сол Герреро) [2021, Ужасы, комедия, WEB-DLRip-AVC] MVO [HDRezka Studio] от MediaBit pb.wtf

Адское бинго через торрент pb.wtf

Размер: 1.83 GB | Добавлен: 1 мес. 28 д. назад | Торрент скачан:23 раза
Смотреть онлайн Адское бинго | Скачать    Ребята, помогите собрать деньги на оплату серверов!!!

08-10-2021 15:04 Адское бинго Скачать торрент  


Адское бинго / Bingo Hell
Информация о фильме:
Название: Адское бинго
Оригинальное название: Bingo Hell
Год выхода: 2021
Жанр: Ужасы, комедия
Режиссер: Гиги Сол Герреро
В ролях: Адриана Барраса, Л. Скотт Колдуэлл, Джошуа Калеб Джонсон, Клэйтон Ланди, Джонатан Медина, Бертила Дамас, Гроувер Колсон, Дэвид Дженсен, Келли Мурта, Ричард Брэйк, Венди Конрад, Гиги Сол Герреро

Описание: Пожилая упрямая жительница Оак-Спрингс по имени Лупита противится любым переменам в городке и по привычке указывает людям, как себя вести. Когда владелец задрипанного местного зала для игры в бинго внезапно исчезает, а помещение выкупает незнакомец и тут же устраивает там аттракцион невиданной щедрости, Лупита сразу чует неладное.



Страна: США
Студия: Amazon Studios
Продолжительность: 01:25:43
Перевод: Профессиональный (многоголосый, закадровый) - HDRezka Studio



Информация о файле:
Кодек: AVC
Формат: MKV
Качество: WEB-DLRip-AVC
Видео: MPEG-4 AVC, 1024x426, 23.976 fps, 2160 kb/s
Аудио RU: AC3, 6 ch, 48 kHz, 448 kbps
Аудио EN: AC3, 6 ch, 48 kHz, 448 kbps
Субтитры: Русские (Forced (HDRezka, AMZN), Full), английские, испанские, французские, немецкие, итальянские

x264 info: frame I:1279 Avg QP:15.35 size: 76728
x264 info: frame P:29621 Avg QP:19.56 size: 23795
x264 info: frame B:92406 Avg QP:22.57 size: 6337
x264 info: consecutive B-frames: 4.1% 5.0% 11.2% 19.5% 14.6% 29.0% 6.8% 2.4% 5.9% 0.6% 0.2% 0.1% 0.6%
General
Unique ID : 97396732531328893301161585841011151015 (0x4945EDA97198081B4380FF0F42E7D0A7)
Complete name : D:\uTorrent\Рипы wolf1245\Bingo Hell.2021.MVO.HDREZKA.WEB-DLRip-AVC.[wolf1245.MediaBit].mkv
Format : Matroska
Format version : Version 4
File size : 1.83 GiB
Duration : 1 h 25 min
Overall bit rate : 3 059 kb/s
Movie name : Bingo Hell.2021.MVO.HDREZKA.WEB-DLRip-AVC.[wolf1245.MediaBit]
Encoded date : UTC 2021-10-08 14:54:22
Writing application : mkvmerge v61.0.0 ('So') 64-bit
Writing library : libebml v1.4.2 + libmatroska v1.6.4

Video
ID : 1
Format : AVC
Format/Info : Advanced Video Codec
Format profile : High@L4.1
Format settings : CABAC / 14 Ref Frames
Format settings, CABAC : Yes
Format settings, Reference frames : 14 frames
Codec ID : V_MPEG4/ISO/AVC
Duration : 1 h 25 min
Bit rate : 2 160 kb/s
Width : 1 024 pixels
Height : 426 pixels
Display aspect ratio : 2.40:1
Frame rate mode : Constant
Frame rate : 23.976 (24000/1001) FPS
Color space : YUV
Chroma subsampling : 4:2:0
Bit depth : 8 bits
Scan type : Progressive
Bits/(Pixel*Frame) : 0.207
Stream size : 1.29 GiB (71%)
Title : [wolf1245.MediaBit]
Writing library : x264 core 161 r3020 d198931
Encoding settings : cabac=1 / ref=14 / deblock=1:-3:-3 / analyse=0x3:0x133 / me=umh / subme=11 / psy=1 / psy_rd=1.00:0.07 / mixed_ref=1 / me_range=48 / chroma_me=1 / trellis=2 / 8x8dct=1 / cqm=0 / deadzone=21,11 / fast_pskip=1 / chroma_qp_offset=-3 / threads=10 / lookahead_threads=2 / sliced_threads=0 / nr=0 / decimate=1 / interlaced=0 / bluray_compat=0 / constrained_intra=0 / bframes=12 / b_pyramid=2 / b_adapt=2 / b_bias=0 / direct=3 / weightb=1 / open_gop=0 / weightp=2 / keyint=240 / keyint_min=24 / scenecut=40 / intra_refresh=0 / rc_lookahead=60 / rc=2pass / mbtree=1 / bitrate=2160 / ratetol=1.0 / qcomp=0.60 / qpmin=0 / qpmax=69 / qpstep=4 / cplxblur=20.0 / qblur=0.5 / vbv_maxrate=50000 / vbv_bufsize=62500 / nal_hrd=none / filler=0 / ip_ratio=1.40 / aq=3:0.80
Language : English
Default : Yes
Forced : No
Color range : Limited
Color primaries : BT.709
Transfer characteristics : BT.709
Matrix coefficients : BT.709

Audio #1
ID : 2
Format : AC-3
Format/Info : Audio Coding 3
Commercial name : Dolby Digital
Codec ID : A_AC3
Duration : 1 h 25 min
Bit rate mode : Constant
Bit rate : 448 kb/s
Channel(s) : 6 channels
Channel layout : L R C LFE Ls Rs
Sampling rate : 48.0 kHz
Frame rate : 31.250 FPS (1536 SPF)
Compression mode : Lossy
Stream size : 275 MiB (15%)
Title : MVO | HDRezka Studio
Language : Russian
Service kind : Complete Main
Default : Yes
Forced : No

Audio #2
ID : 3
Format : AC-3
Format/Info : Audio Coding 3
Commercial name : Dolby Digital
Codec ID : A_AC3
Duration : 1 h 25 min
Bit rate mode : Constant
Bit rate : 448 kb/s
Channel(s) : 6 channels
Channel layout : L R C LFE Ls Rs
Sampling rate : 48.0 kHz
Frame rate : 31.250 FPS (1536 SPF)
Compression mode : Lossy
Stream size : 275 MiB (15%)
Title : English
Language : English
Service kind : Complete Main
Default : No
Forced : No

Text #1
ID : 4
Format : UTF-8
Codec ID : S_TEXT/UTF8
Codec ID/Info : UTF-8 Plain Text
Duration : 1 h 22 min
Bit rate : 7 b/s
Count of elements : 90
Stream size : 4.71 KiB (0%)
Title : Forced (HDRezka)
Language : Russian
Default : Yes
Forced : No

Text #2
ID : 5
Format : UTF-8
Codec ID : S_TEXT/UTF8
Codec ID/Info : UTF-8 Plain Text
Duration : 1 h 22 min
Bit rate : 2 b/s
Count of elements : 37
Stream size : 1.66 KiB (0%)
Title : Forced (AMZN)
Language : Russian
Default : No
Forced : No

Text #3
ID : 6
Format : UTF-8
Codec ID : S_TEXT/UTF8
Codec ID/Info : UTF-8 Plain Text
Duration : 1 h 24 min
Bit rate : 62 b/s
Count of elements : 791
Stream size : 39.0 KiB (0%)
Title : Full
Language : Russian
Default : No
Forced : No

Text #4
ID : 7
Format : UTF-8
Codec ID : S_TEXT/UTF8
Codec ID/Info : UTF-8 Plain Text
Duration : 1 h 24 min
Bit rate : 44 b/s
Count of elements : 980
Stream size : 27.3 KiB (0%)
Title : English
Language : English
Default : No
Forced : No

Text #5
ID : 8
Format : UTF-8
Codec ID : S_TEXT/UTF8
Codec ID/Info : UTF-8 Plain Text
Duration : 1 h 25 min
Bit rate : 58 b/s
Count of elements : 1369
Stream size : 36.4 KiB (0%)
Title : English [SDH]
Language : English
Default : No
Forced : No

Text #6
ID : 9
Format : UTF-8
Codec ID : S_TEXT/UTF8
Codec ID/Info : UTF-8 Plain Text
Duration : 1 h 24 min
Bit rate : 37 b/s
Count of elements : 787
Stream size : 23.4 KiB (0%)
Title : French
Language : French
Default : No
Forced : No

Text #7
ID : 10
Format : UTF-8
Codec ID : S_TEXT/UTF8
Codec ID/Info : UTF-8 Plain Text
Duration : 1 h 24 min
Bit rate : 38 b/s
Count of elements : 784
Stream size : 23.6 KiB (0%)
Title : German
Language : German
Default : No
Forced : No

Text #8
ID : 11
Format : UTF-8
Codec ID : S_TEXT/UTF8
Codec ID/Info : UTF-8 Plain Text
Duration : 1 h 24 min
Bit rate : 37 b/s
Count of elements : 787
Stream size : 23.6 KiB (0%)
Title : Spanish
Language : Spanish
Default : No
Forced : No

Text #9
ID : 12
Format : UTF-8
Codec ID : S_TEXT/UTF8
Codec ID/Info : UTF-8 Plain Text
Duration : 1 h 24 min
Bit rate : 38 b/s
Count of elements : 785
Stream size : 23.8 KiB (0%)
Title : Italian
Language : Italian
Default : No
Forced : No
Релиз от: &

Автор релиза:
pb.wtf



Скачать Адское бинго через торрент https://i7.imageban.ru/out/2021/10/08/ff65e7548ef3077708e8a9d95ec4c9e1.jpg Скачать, смотреть онлайн Адское бинго бесплантно в хорошем качестве Описание: Пожилая упрямая жительница Оак-Спрингс по имени Лупита противится любым переменам в городке и по привычке указывает людям, как ... 10 10 2
Торрент: Зарегистрирован [2021-10-08 15:04] · скачан: 23 раз
Статус: √ проверено
Размер: 1.83 GB
Как cкачать? Как скачать Адское бинго через торрент | UTorrent

28-11-2019 20:33  

Отключить всю рекламу на сайте

    Дорогой пользователь! Огромная просьба, поблагодарите релизера, оцените раздачу и оставьте свои комментарий, если Вы скачали Адское бинго через торрент бесплатно!
    Комментировать посты могут только пользователи прошедшие не сложную регистрацию
    Показать сообщения:    

    Адское бинго через торрент
    Скачать бесплатно Адское бинго
    Адское бинго скачать торрент
    Адское бинго смотреть онлайн
    Cкачать фильм Адское бинго бесплатно
    Адское бинго скачать торрент в хорошем качестве
    Адское бинго смотреть онлайн бесплатно в хорошем качестве


    Вы не можете начинать темы
    Вы не можете отвечать на сообщения
    Вы не можете редактировать свои сообщения
    Вы не можете удалять свои сообщения
    Вы не можете голосовать в опросах
    Вы не можете прикреплять файлы к сообщениям
    Вы можете скачивать файлы