Присоединяйтесь к нам в Telegram!, здесь всегда актуальный адрес сайта, оперативная поддержка и многое другое!!

>

5.9

iTunes

7.4

iTunes

9.4

1 сезон

1

7.4

2 сезон

7.2

iTunes

7.3

1 сезон

13

6.1

iTunes

8.3

GOG

30

ULTIMATE

pack

9.9

Лицензия

ВАЖНО

ИГРА 18+

pack

7.3

RePack

MK11

7.7

RePack

jed

7.8

RePack

fifa19

8.5

RePack

RDR2

RePack

NEED FOR SPEED™ PAYBACK

5 сезон

9 сезон

Бесстыжие 9 сезон

Все сериалы

все сериалы на PB.wtf

RePack

FAR CRY 5

Anonymous, доброй ночи, мы катастрофически не успеваем собрать деньги на оплату серверов, помогите нам пожалуйста 5,10,15р., для нас важна любая помощь . В качестве благодарности мы отключим Вам всю рекламу на сайте (укажите свой ник в строку Ваше имя)!

×
  
Magnet ссылка

Поместье / The Manor (Аксель Кэролин) [2021, Ужасы, WEB-DLRip-AVC] DVO [Pazl Voice] pb.wtf

Поместье через торрент pb.wtf

Размер: 1.86 GB | Добавлен: 1 мес. 20 д. назад | Торрент скачан:53 раза
Смотреть онлайн Поместье | Скачать    Ребята, помогите собрать деньги на оплату серверов!!!

09-10-2021 05:48 Поместье Скачать торрент  

Поместье | The Manor
Год выпуска: 2021
Страна: США
Выпущено: Amazon Studios, Blumhouse Television
Жанр: Ужасы
Продолжительность: 01:21:11
Перевод: Любительский (двухголосый) | Pazl Voice
Субтитры: Русские, английские

Режиссер: Аксель Кэролин

rating

В ролях: Барбара Херши, Брюс Дэвисон, Николас Александр, Джилл Ларсон, Фран Беннетт, Кэти А. Кин, Цейра Пайтон, Нэнси Лайнхэн Чарльз, Шелли Робертсон, Стэйси Трэвис

Описание: Джудит Олбрайт пожилая женщина, которая пережила инсульт. После этого она переезжает в исторический дом престарелых, чтобы находиться под постоянным присмотром. Вот только героиня начинает подозревать, что постояльцев этого заведения преследует нечто сверхъестественное.

Качество: WEB-DLRip-AVC
Формат: MKV

Видео: MPEG-4 AVC, 2380 Кбит/с, 1024x426, 23.976 fps
Аудио #01: 48 kHz, AC3, 5.1, 448 Kbps | Pazl Voice | RUS |
Аудио #02: 48 kHz, AC3, 5.1, 448 Kbps | Оригинал | ENG |
скриншот  скриншот  скриншот  скриншот  скриншот  

Общее
Уникальный идентификатор : 115142033375390525710282697928529330084 (0x569F8C8AD708B11962841779D432BFA4)
Полное имя : E:TorrentsПоместье.2021.WEB-DLRip-AVC_JNS82.mkv
Формат : Matroska
Версия формата : Version 4
Размер файла : 1,86 Гбайт
Продолжительность : 1 ч. 21 м.
Общий поток : 3 278 Кбит/сек
Название фильма : Поместье.2021.WEB-DLRip-AVC_JNS82
Дата кодирования : UTC 2021-10-09 05:25:57
Программа кодирования : mkvmerge v59.0.0 ('Shining Star') 64-bit
Библиотека кодирования : libebml v1.4.2 + libmatroska v1.6.4

Видео
Идентификатор : 1
Формат : AVC
Формат/Информация : Advanced Video Codec
Профиль формата : High@L4.1
Настройки формата : CABAC / 12 Ref Frames
Параметр CABAC формата : Да
Параметр RefFrames формата : 12 кадров
Идентификатор кодека : V_MPEG4/ISO/AVC
Продолжительность : 1 ч. 21 м.
Битрейт : 2 380 Кбит/сек
Ширина : 1 024 пикселя
Высота : 426 пикселей
Соотношение сторон : 2,40:1
Режим частоты кадров : Постоянный
Частота кадров : 23,976 (24000/1001) кадра/сек
Цветовое пространство : YUV
Субдискретизация насыщенности : 4:2:0
Битовая глубина : 8 бит
Тип развёртки : Прогрессивная
Бит/(Пиксели*Кадры) : 0.228
Размер потока : 1,35 Гбайт (73%)
Библиотека кодирования : x264 core 157 r2958 57baac4
Настройки программы : cabac=1 / ref=12 / deblock=1:-3:-3 / analyse=0x3:0x113 / me=umh / subme=9 / psy=1 / psy_rd=1.00:0.05 / mixed_ref=1 / me_range=32 / chroma_me=1 / trellis=1 / 8x8dct=1 / cqm=0 / deadzone=21,11 / fast_pskip=0 / chroma_qp_offset=-3 / threads=8 / lookahead_threads=2 / sliced_threads=0 / nr=0 / decimate=0 / interlaced=0 / bluray_compat=0 / constrained_intra=0 / bframes=12 / b_pyramid=2 / b_adapt=2 / b_bias=0 / direct=3 / weightb=1 / open_gop=0 / weightp=2 / keyint=240 / keyint_min=24 / scenecut=40 / intra_refresh=0 / rc=2pass / mbtree=0 / bitrate=2380 / ratetol=1.0 / qcomp=0.60 / qpmin=0 / qpmax=69 / qpstep=4 / cplxblur=20.0 / qblur=0.5 / ip_ratio=1.40 / pb_ratio=1.30 / aq=1:1.00
Default : Да
Forced : Нет
Цветовой диапазон : Limited
Основные цвета : BT.709
Характеристики трансфера : BT.709
Коэффициенты матрицы : BT.709

Аудио #1
Идентификатор : 2
Формат : AC-3
Формат/Информация : Audio Coding 3
Коммерческое название : Dolby Digital
Идентификатор кодека : A_AC3
Продолжительность : 1 ч. 21 м.
Вид битрейта : Постоянный
Битрейт : 448 Кбит/сек
Каналы : 6 каналов
Channel layout : L R C LFE Ls Rs
Частота : 48,0 КГц
Частота кадров : 31,250 кадров/сек (1536 SPF)
Метод сжатия : С потерями
Размер потока : 260 Мбайт (14%)
Заголовок : [DVO] Pazl Voice
Язык : Russian
Service kind : Complete Main
Default : Да
Forced : Нет

Аудио #2
Идентификатор : 3
Формат : AC-3
Формат/Информация : Audio Coding 3
Коммерческое название : Dolby Digital
Идентификатор кодека : A_AC3
Продолжительность : 1 ч. 21 м.
Вид битрейта : Постоянный
Битрейт : 448 Кбит/сек
Каналы : 6 каналов
Channel layout : L R C LFE Ls Rs
Частота : 48,0 КГц
Частота кадров : 31,250 кадров/сек (1536 SPF)
Метод сжатия : С потерями
Размер потока : 260 Мбайт (14%)
Язык : English
Service kind : Complete Main
Default : Нет
Forced : Нет

Текст #1
Идентификатор : 4
Формат : UTF-8
Идентификатор кодека : S_TEXT/UTF8
Идентификатор кодека/Информация : UTF-8 Plain Text
Продолжительность : 1 ч. 20 м.
Битрейт : 79 бит/сек
Count of elements : 953
Размер потока : 46,7 Кбайт (0%)
Язык : Russian
Default : Нет
Forced : Нет

Текст #2
Идентификатор : 5
Формат : UTF-8
Идентификатор кодека : S_TEXT/UTF8
Идентификатор кодека/Информация : UTF-8 Plain Text
Продолжительность : 1 ч. 20 м.
Битрейт : 65 бит/сек
Count of elements : 1444
Размер потока : 38,4 Кбайт (0%)
Язык : English
Default : Нет
Forced : Нет

pb.wtf



Скачать Поместье через торрент https://i115.fastpic.org/big/2021/1009/6f/eea4ddd28c2e06846f7ab7d7330f0a6f.jpeg Скачать, смотреть онлайн Поместье бесплантно в хорошем качестве Описание: Джудит Олбрайт пожилая женщина, которая пережила инсульт. После этого она переезжает в исторический дом престарелых, чтобы ... 10 10 4
Торрент: Зарегистрирован [2021-10-09 05:48] · скачан: 53 раз
Статус: T временная
Размер: 1.86 GB
Как cкачать? Как скачать Поместье через торрент | UTorrent

% Раздел Тема Автор DL S | L
Фильмы 2021 [DVDrip, WEB-DLRip, HDrip] (DUB, MVO) [ 1.67 GB ] Поместье / The Manor [2021 WEB-DLRip-AVC] MVO [HDRezka Studio] от ExKinoRay Lithuania Скачать
3 | 0
Фильмы 2021 [DVDrip, WEB-DLRip, HDrip] (DUB, MVO) [ 1.46 GB ] Поместье / The Manor [2021 WEB-DLRip] MVO [HDRezka Studio] bober100 Скачать
2 | 0
T Фильмы (WEB-DL 720p, 1080p) [ 4.66 GB ] Поместье / The Manor [2021 WEB-DL 1080p] DVO [Pazl Voice] bober100 Скачать
5 | 0

28-11-2019 20:33  

Отключить всю рекламу на сайте

    Дорогой пользователь! Огромная просьба, поблагодарите релизера, оцените раздачу и оставьте свои комментарий, если Вы скачали Поместье через торрент бесплатно!
    Комментировать посты могут только пользователи прошедшие не сложную регистрацию
    Показать сообщения:    

    Поместье через торрент
    Скачать бесплатно Поместье
    Поместье скачать торрент
    Поместье смотреть онлайн
    Cкачать фильм Поместье бесплатно
    Поместье скачать торрент в хорошем качестве
    Поместье смотреть онлайн бесплатно в хорошем качестве


    Вы не можете начинать темы
    Вы не можете отвечать на сообщения
    Вы не можете редактировать свои сообщения
    Вы не можете удалять свои сообщения
    Вы не можете голосовать в опросах
    Вы не можете прикреплять файлы к сообщениям
    Вы можете скачивать файлы