Присоединяйтесь к нам в Telegram!, здесь всегда актуальный адрес сайта, оперативная поддержка и многое другое!!

>

5.9

iTunes

7.4

iTunes

9.4

1 сезон

1

7.4

2 сезон

7.2

iTunes

7.3

1 сезон

13

6.1

iTunes

8.3

GOG

30

ULTIMATE

pack

9.9

Лицензия

ВАЖНО

ИГРА 18+

pack

7.3

RePack

MK11

7.7

RePack

jed

7.8

RePack

fifa19

8.5

RePack

RDR2

RePack

NEED FOR SPEED™ PAYBACK

5 сезон

9 сезон

Бесстыжие 9 сезон

Все сериалы

все сериалы на PB.wtf

RePack

FAR CRY 5

Anonymous, добрый вечер, мы катастрофически не успеваем собрать деньги на оплату серверов, помогите нам пожалуйста 5,10,15р., для нас важна любая помощь . В качестве благодарности мы отключим Вам всю рекламу на сайте (укажите свой ник в строку Ваше имя)!

×
  
Magnet ссылка

Не дыши 2 / Don't Breathe 2 (Родольфо Саягес) [2021, Ужасы, боевик, триллер, драма, WEB-DLRip-AVC] DUB [Пифагор] pb.wtf

Не дыши 2 через торрент pb.wtf

Раздают: 2 [ 0 KB/s ]
Размер: 1.72 GB | Добавлен: 1 мес. 21 д. назад | Торрент скачан:64 раза
Смотреть онлайн Не дыши 2 | Скачать    Ребята, помогите собрать деньги на оплату серверов!!!

09-10-2021 06:33 Не дыши 2 Скачать торрент  

Не дыши 2 | Don't Breathe 2
Год выпуска: 2021
Страна: США, Сербия
Выпущено: Screen Gems, Stage 6 Films, Ghost House Pictures
Жанр: Ужасы, боевик, триллер, драма
Продолжительность: 01:38:13
Перевод: Дублированный | Пифагор
Субтитры: Русские (Forced,full), английские

Режиссер: Родольфо Саягес

rating

В ролях: Стивен Лэнг, Мэдлин Грэйс, Брендан Секстон III, Адам Янг, Рокки Уильямс, Кристиан Сахиа, Бобби Шофилд, Фиона О’Шонесси, Стефани Арсила, Диана Бабницова

Описание: Слепой мужчина долгие годы жил в изолированной хижине вместе с девочкой, которую он спас из пожара. Неожиданно их уединение нарушает банда головорезов, которые похищают девушку. Слепой вынужден покинуть свое убежище, чтобы спасти близкого человека.
«Не дыши 2» — сиквел одноименного триллера о слепом человеке, который сражается со злом его же методами.

Качество: WEB-DLRip-AVC
Формат: MKV

Видео: MPEG-4 AVC, 2117 Kбит/с, 1024x426, 23.976 fps
Аудио: 48 kHz, AC3, 5.1, 384 Kbps | Дублированный | Пифагор | RUS |
скриншот  скриншот  скриншот  скриншот  скриншот  

x264 info: frame I:964 Avg QP:11.85 size: 61935
x264 info: frame P:29873 Avg QP:14.59 size: 22681
x264 info: frame B:110466 Avg QP:16.20 size: 7424
Общее
Уникальный идентификатор : 51806589593324968008078115180811728781 (0x26F996129BA9DB1EBA456E9D47F9378D)
Полное имя : E:TorrentsDont.Breathe.2_(2021).WEB-DLRip-AVC_JNS82.mkv
Формат : Matroska
Версия формата : Version 4
Размер файла : 1,72 Гбайт
Продолжительность : 1 ч. 38 м.
Общий поток : 2 500 Кбит/сек
Название фильма : Dont.Breathe.2_(2021).WEB-DLRip-AVC_JNS82
Дата кодирования : UTC 2021-10-09 02:14:24
Программа кодирования : mkvmerge v59.0.0 ('Shining Star') 64-bit
Библиотека кодирования : libebml v1.4.2 + libmatroska v1.6.4 / Lavf58.29.100
ENCODING_INFO : MATROSKA,WEBM > MKV Пользовательский

Видео
Идентификатор : 1
Формат : AVC
Формат/Информация : Advanced Video Codec
Профиль формата : High@L4.1
Настройки формата : CABAC / 12 Ref Frames
Параметр CABAC формата : Да
Параметр RefFrames формата : 12 кадров
Идентификатор кодека : V_MPEG4/ISO/AVC
Продолжительность : 1 ч. 38 м.
Битрейт : 2 117 Кбит/сек
Ширина : 1 024 пикселя
Высота : 426 пикселей
Соотношение сторон : 2,40:1
Режим частоты кадров : Постоянный
Частота кадров : 23,976 (24000/1001) кадра/сек
Цветовое пространство : YUV
Субдискретизация насыщенности : 4:2:0
Битовая глубина : 8 бит
Тип развёртки : Прогрессивная
Бит/(Пиксели*Кадры) : 0.202
Размер потока : 1,45 Гбайт (85%)
Библиотека кодирования : x264 core 157 r2958 57baac4
Настройки программы : cabac=1 / ref=12 / deblock=1:-3:-3 / analyse=0x3:0x113 / me=umh / subme=11 / psy=1 / psy_rd=1.00:0.05 / mixed_ref=1 / me_range=32 / chroma_me=1 / trellis=2 / 8x8dct=1 / cqm=0 / deadzone=21,11 / fast_pskip=0 / chroma_qp_offset=-3 / threads=8 / lookahead_threads=2 / sliced_threads=0 / nr=0 / decimate=0 / interlaced=0 / bluray_compat=0 / constrained_intra=0 / bframes=12 / b_pyramid=2 / b_adapt=2 / b_bias=0 / direct=3 / weightb=1 / open_gop=0 / weightp=2 / keyint=240 / keyint_min=24 / scenecut=40 / intra_refresh=0 / rc=2pass / mbtree=0 / bitrate=2117 / ratetol=1.0 / qcomp=0.60 / qpmin=0 / qpmax=69 / qpstep=4 / cplxblur=20.0 / qblur=0.5 / ip_ratio=1.40 / pb_ratio=1.30 / aq=1:1.00
Язык : English
Default : Да
Forced : Нет
Цветовой диапазон : Limited
Основные цвета : BT.709
Характеристики трансфера : BT.709
Коэффициенты матрицы : BT.709

Аудио
Идентификатор : 2
Формат : AC-3
Формат/Информация : Audio Coding 3
Коммерческое название : Dolby Digital
Идентификатор кодека : A_AC3
Продолжительность : 1 ч. 38 м.
Вид битрейта : Постоянный
Битрейт : 384 Кбит/сек
Каналы : 6 каналов
Channel layout : L R C LFE Ls Rs
Частота : 48,0 КГц
Частота кадров : 31,250 кадров/сек (1536 SPF)
Метод сжатия : С потерями
Размер потока : 270 Мбайт (15%)
Заголовок : [DUB] Пифагор
Язык : Russian
Service kind : Complete Main
Default : Да
Forced : Нет

Текст #1
Идентификатор : 3
Формат : UTF-8
Идентификатор кодека : S_TEXT/UTF8
Идентификатор кодека/Информация : UTF-8 Plain Text
Продолжительность : 1 ч. 36 м.
Битрейт : 0 бит/сек
Count of elements : 10
Размер потока : 336 байт (0%)
Заголовок : [forced]
Язык : Russian
Default : Да
Forced : Нет

Текст #2
Идентификатор : 4
Формат : UTF-8
Идентификатор кодека : S_TEXT/UTF8
Идентификатор кодека/Информация : UTF-8 Plain Text
Продолжительность : 1 ч. 28 м.
Битрейт : 24 бит/сек
Count of elements : 477
Размер потока : 16,1 Кбайт (0%)
Заголовок : [Full]
Язык : Russian
Default : Нет
Forced : Нет

Текст #3
Идентификатор : 5
Формат : UTF-8
Идентификатор кодека : S_TEXT/UTF8
Идентификатор кодека/Информация : UTF-8 Plain Text
Продолжительность : 1 ч. 35 м.
Битрейт : 23 бит/сек
Count of elements : 925
Размер потока : 16,8 Кбайт (0%)
Язык : English
Default : Нет
Forced : Нет

pb.wtf



Скачать Не дыши 2 через торрент https://i115.fastpic.org/big/2021/1009/46/0fe232b31c9fe76bb3ffc4dc00530e46.jpg Скачать, смотреть онлайн Не дыши 2 бесплантно в хорошем качестве Описание: Слепой мужчина долгие годы жил в изолированной хижине вместе с девочкой, которую он спас из пожара. Неожиданно их уединение ... 10 10 4
Торрент: Зарегистрирован [2021-10-09 06:33] · скачан: 64 раз
Статус: √ проверено
Размер: 1.72 GB
Как cкачать? Как скачать Не дыши 2 через торрент | UTorrent

28-11-2019 20:33  

Отключить всю рекламу на сайте

    Дорогой пользователь! Огромная просьба, поблагодарите релизера, оцените раздачу и оставьте свои комментарий, если Вы скачали Не дыши 2 через торрент бесплатно!
    Комментировать посты могут только пользователи прошедшие не сложную регистрацию
    Показать сообщения:    

    Не дыши 2 через торрент
    Скачать бесплатно Не дыши 2
    Не дыши 2 скачать торрент
    Не дыши 2 смотреть онлайн
    Cкачать фильм Не дыши 2 бесплатно
    Не дыши 2 скачать торрент в хорошем качестве
    Не дыши 2 смотреть онлайн бесплатно в хорошем качестве


    Вы не можете начинать темы
    Вы не можете отвечать на сообщения
    Вы не можете редактировать свои сообщения
    Вы не можете удалять свои сообщения
    Вы не можете голосовать в опросах
    Вы не можете прикреплять файлы к сообщениям
    Вы можете скачивать файлы