Присоединяйтесь к нам в Telegram!, здесь всегда актуальный адрес сайта, оперативная поддержка и многое другое!!

>

5.9

iTunes

7.4

iTunes

9.4

1 сезон

1

7.4

2 сезон

7.2

iTunes

7.3

1 сезон

13

6.1

iTunes

8.3

GOG

30

ULTIMATE

pack

9.9

Лицензия

ВАЖНО

ИГРА 18+

pack

7.3

RePack

MK11

7.7

RePack

jed

7.8

RePack

fifa19

8.5

RePack

RDR2

RePack

NEED FOR SPEED™ PAYBACK

5 сезон

9 сезон

Бесстыжие 9 сезон

Все сериалы

все сериалы на PB.wtf

RePack

FAR CRY 5

Anonymous, доброе утро, мы катастрофически не успеваем собрать деньги на оплату серверов, помогите нам пожалуйста 5,10,15р., для нас важна любая помощь . В качестве благодарности мы отключим Вам всю рекламу на сайте (укажите свой ник в строку Ваше имя)!

×
  
Magnet ссылка

Буги / Boogie (Эдди Хуанг) [2021, Драма, HDRip-AVC] DUB [iTunes] от MediaBit pb.wtf

Буги через торрент pb.wtf

Размер: 1.85 GB | Добавлен: 1 мес. 17 д. назад | Торрент скачан:5 раз
Смотреть онлайн Буги | Скачать    Ребята, помогите собрать деньги на оплату серверов!!!

09-10-2021 07:25 Буги Скачать торрент  


Буги / Boogie
Информация о фильме:
Название: Буги
Оригинальное название: Boogie
Год выхода: 2021
Жанр: Драма
Режиссер: Эдди Хуанг

В ролях: Тэйлор Такахаси, Тейлор Пейдж, Перри Юнг, Памелин Чи, Майк Мо, Хорхе Лендеборг мл., Доменик Ломбардоззи, Стив Култер

Описание: Альфред Чин по прозвищу Буги мечтает играть в НБА. Однако у его родителей другие планы – они хотят, чтобы он сосредоточил всё своё внимание на стипендии в элитном колледже. Параллельно с этим Буги пытается разобраться в отношениях с девушкой, одноклассниками и соперниками на площадке.



Страна: США
Студия: Immersive Pictures, Wink Productions
Продолжительность: 01:29:48
Перевод: Дублированный - iTunes



Информация о файле:
Кодек: AVC
Формат: MKV
Качество: HDRip-AVC
Видео: MPEG-4 AVC, 1024x428, 23.976 fps, 2120 kbps
Аудио RU: AC3, 6 ch, 48 kHz, 384 kbps
Аудио EN: AC3, 6 ch, 48 kHz, 448 kbps
Субтитры: Русские (Forced), английские

x264 info: frame I:1082 Avg QP:13.06 size: 83319
x264 info: frame P:30563 Avg QP:16.53 size: 23400
x264 info: frame B:97529 Avg QP:19.08 size: 6370
x264 info: consecutive B-frames: 3.8% 4.3% 10.3% 15.4% 14.4% 45.4% 3.8% 0.9% 0.5% 0.5% 0.2% 0.1% 0.4%
General
Unique ID : 96952485097197613529812830408018769494 (0x48F05E9283E635773F9F9EEA1C5C3656)
Complete name : D:uTorrentРипы wolf1245Boogie.2021.DUB.iTunes.HDRip-AVC.[wolf1245.MediaBit].mkv
Format : Matroska
Format version : Version 4
File size : 1.85 GiB
Duration : 1 h 29 min
Overall bit rate : 2 952 kb/s
Movie name : Boogie.2021.DUB.iTunes.HDRip-AVC.[wolf1245.MediaBit]
Encoded date : UTC 2021-10-09 07:10:18
Writing application : mkvmerge v61.0.0 ('So') 64-bit
Writing library : libebml v1.4.2 + libmatroska v1.6.4
Video
ID : 1
Format : AVC
Format/Info : Advanced Video Codec
Format profile : High@L4.1
Format settings : CABAC / 14 Ref Frames
Format settings, CABAC : Yes
Format settings, Reference frames : 14 frames
Codec ID : V_MPEG4/ISO/AVC
Duration : 1 h 29 min
Bit rate : 2 120 kb/s
Width : 1 024 pixels
Height : 428 pixels
Display aspect ratio : 2.40:1
Frame rate mode : Constant
Frame rate : 23.976 (24000/1001) FPS
Color space : YUV
Chroma subsampling : 4:2:0
Bit depth : 8 bits
Scan type : Progressive
Bits/(Pixel*Frame) : 0.202
Stream size : 1.33 GiB (72%)
Title : -=[wolf1245.MediaBit]=-
Writing library : x264 core 161 r3020 d198931
Encoding settings : cabac=1 / ref=14 / deblock=1:-3:-3 / analyse=0x3:0x133 / me=umh / subme=11 / psy=1 / psy_rd=1.00:0.07 / mixed_ref=1 / me_range=48 / chroma_me=1 / trellis=2 / 8x8dct=1 / cqm=0 / deadzone=21,11 / fast_pskip=1 / chroma_qp_offset=-3 / threads=10 / lookahead_threads=2 / sliced_threads=0 / nr=0 / decimate=1 / interlaced=0 / bluray_compat=0 / constrained_intra=0 / bframes=12 / b_pyramid=2 / b_adapt=2 / b_bias=0 / direct=3 / weightb=1 / open_gop=0 / weightp=2 / keyint=240 / keyint_min=24 / scenecut=40 / intra_refresh=0 / rc_lookahead=60 / rc=2pass / mbtree=1 / bitrate=2120 / ratetol=1.0 / qcomp=0.60 / qpmin=0 / qpmax=69 / qpstep=4 / cplxblur=20.0 / qblur=0.5 / vbv_maxrate=50000 / vbv_bufsize=62500 / nal_hrd=none / filler=0 / ip_ratio=1.40 / aq=3:0.80
Language : English
Default : Yes
Forced : No
Color range : Limited
Color primaries : BT.709
Matrix coefficients : BT.709
Audio #1
ID : 2
Format : AC-3
Format/Info : Audio Coding 3
Commercial name : Dolby Digital
Codec ID : A_AC3
Duration : 1 h 29 min
Bit rate mode : Constant
Bit rate : 384 kb/s
Channel(s) : 6 channels
Channel layout : L R C LFE Ls Rs
Sampling rate : 48.0 kHz
Frame rate : 31.250 FPS (1536 SPF)
Compression mode : Lossy
Stream size : 247 MiB (13%)
Title : Dub / iTunes
Language : Russian
Service kind : Complete Main
Default : Yes
Forced : No
Audio #2
ID : 3
Format : AC-3
Format/Info : Audio Coding 3
Commercial name : Dolby Digital
Codec ID : A_AC3
Duration : 1 h 29 min
Bit rate mode : Constant
Bit rate : 448 kb/s
Channel(s) : 6 channels
Channel layout : L R C LFE Ls Rs
Sampling rate : 48.0 kHz
Frame rate : 31.250 FPS (1536 SPF)
Compression mode : Lossy
Stream size : 288 MiB (15%)
Title : Original
Language : English
Service kind : Complete Main
Default : No
Forced : No
Text #1
ID : 4
Format : UTF-8
Codec ID : S_TEXT/UTF8
Codec ID/Info : UTF-8 Plain Text
Duration : 1 h 24 min
Bit rate : 13 b/s
Count of elements : 177
Stream size : 8.60 KiB (0%)
Title : Forcced
Language : Russian
Default : Yes
Forced : Yes
Text #2
ID : 5
Format : UTF-8
Codec ID : S_TEXT/UTF8
Codec ID/Info : UTF-8 Plain Text
Duration : 1 h 28 min
Bit rate : 84 b/s
Count of elements : 1647
Stream size : 54.6 KiB (0%)
Title : SDH
Language : English
Default : No
Forced : No
Menu
00:00:00.000 : :Chapter 01
00:04:53.293 : :Chapter 02
00:10:14.864 : :Chapter 03
00:12:06.392 : :Chapter 04
00:16:47.673 : :Chapter 05
00:22:59.920 : :Chapter 06
00:25:49.256 : :Chapter 07
00:30:12.769 : :Chapter 08
00:35:17.574 : :Chapter 09
00:40:00.023 : :Chapter 10
00:44:52.106 : :Chapter 11
00:49:18.497 : :Chapter 12
00:55:10.599 : :Chapter 13
00:59:42.496 : :Chapter 14
01:05:55.034 : :Chapter 15
01:09:54.273 : :Chapter 16
01:11:27.158 : :Chapter 17
01:15:11.924 : :Chapter 18
01:20:38.083 : :Chapter 19
01:25:39.217 : :Chapter 20
Релиз от: &
Автор релиза:
pb.wtf



Скачать Буги через торрент https://d.radikal.ru/d35/2110/d5/fb8ae2c6f290.jpg Скачать, смотреть онлайн Буги бесплантно в хорошем качестве Описание: Альфред Чин по прозвищу Буги мечтает играть в НБА. Однако у его родителей другие планы – они хотят, чтобы он сосредоточил всё ... 10 10 1
Торрент: Зарегистрирован [2021-10-09 07:25] · скачан: 5 раз
Статус: √ проверено
Размер: 1.85 GB
Как cкачать? Как скачать Буги через торрент | UTorrent

28-11-2019 20:33  

Отключить всю рекламу на сайте

    Дорогой пользователь! Огромная просьба, поблагодарите релизера, оцените раздачу и оставьте свои комментарий, если Вы скачали Буги через торрент бесплатно!
    Комментировать посты могут только пользователи прошедшие не сложную регистрацию
    Показать сообщения:    

    Буги через торрент
    Скачать бесплатно Буги
    Буги скачать торрент
    Буги смотреть онлайн
    Cкачать фильм Буги бесплатно
    Буги скачать торрент в хорошем качестве
    Буги смотреть онлайн бесплатно в хорошем качестве


    Вы не можете начинать темы
    Вы не можете отвечать на сообщения
    Вы не можете редактировать свои сообщения
    Вы не можете удалять свои сообщения
    Вы не можете голосовать в опросах
    Вы не можете прикреплять файлы к сообщениям
    Вы можете скачивать файлы