Присоединяйтесь к нам в Telegram!, здесь всегда актуальный адрес сайта, оперативная поддержка и многое другое!!

>

5.9

iTunes

7.4

iTunes

9.4

1 сезон

1

7.4

2 сезон

7.2

iTunes

7.3

1 сезон

13

6.1

iTunes

8.3

GOG

30

ULTIMATE

pack

9.9

Лицензия

ВАЖНО

ИГРА 18+

pack

7.3

RePack

MK11

7.7

RePack

jed

7.8

RePack

fifa19

8.5

RePack

RDR2

RePack

NEED FOR SPEED™ PAYBACK

5 сезон

9 сезон

Бесстыжие 9 сезон

Все сериалы

все сериалы на PB.wtf

RePack

FAR CRY 5

Anonymous, добрый вечер, мы катастрофически не успеваем собрать деньги на оплату серверов, помогите нам пожалуйста 5,10,15р., для нас важна любая помощь . В качестве благодарности мы отключим Вам всю рекламу на сайте (укажите свой ник в строку Ваше имя)!

×
  
Magnet ссылка

В твоем доме кто-то есть / There's Someone Inside Your House (Патрик Брайс) [2021, Ужасы, триллер, WEB-DLRip-AVC] DUB [Невафильм / Netflix] pb.wtf

В твоем доме кто-то есть через торрент pb.wtf

Раздают: 1 [ 0 KB/s ]
Размер: 1.39 GB | Добавлен: 1 мес. 21 д. назад | Торрент скачан:65 раз
Смотреть онлайн В твоем доме кто-то есть | Скачать    Ребята, помогите собрать деньги на оплату серверов!!!

09-10-2021 12:14 В твоем доме кто-то есть Скачать торрент  

В твоем доме кто-то есть
There's Someone Inside Your House

Год выпуска: 2021
Страна: США
Студия: 21 Laps Entertainment, Atomic Monster, Netflix
Жанр: Ужасы, триллер
Продолжительность: 01:36:13
Перевод: Дублированный | Невафильм по заказу Netflix
Субтитры: Русские (Forced, full), украинские (Full), английские

Режиссер: Патрик Брайс

rating

В ролях: Сара Дагдэйл, Кайла Хеллер, Сидни Парк, Теодор Пеллерен, Маркян Тарасюк, Эндрю Данбар, Эмилия Баранак, Ася Купер, Баркели Даффилд

Описание: Группу школьников из небольшого американского городка преследует таинственный убийца в маске. Он терроризирует подростков и обещает рассказать всему городу их самые страшные и постыдные секреты. Новенькая Макани Янг вместе с другими одноклассниками-аутсайдерами начинают собственное расследование с целью выявить убийцу. Под их подозрения попадает каждый, в том числе и они сами.
«В твоем доме кто-то есть» — американский слешер по мотивам одноименного романа Стефани Перкинс.

Качество: WEB-DLRip-AVC
Формат: MKV

Видео: MPEG-4 AVC, 1024x428 at 24.000 fps, x264@L4.1, ~1177 kbps
Аудио #01: 48 kHz, AC3, 5.1, 448 Kbps | Дублированный | Netflix | RUS |
Аудио #02: 48 kHz, AC3, 5.1, 448 Kbps | Оригинал | ENG |
скриншот  скриншот  скриншот  скриншот  скриншот  

x264 info: frame I:1332 Avg QP:11.20 size: 46649
x264 info: frame P:27798 Avg QP:14.74 size: 14217
x264 info: frame B:109377 Avg QP:17.13 size: 3570

General
Unique ID : 302934917785268741805291729348586436097 (0xE3E724977967ACF778C6B5F1F7A0F601)
Complete name : B:There.s.Someone.Inside.Your.House.(2021).WEB-DLRip-AVC.mkv
Format : Matroska
Format version : Version 4
File size : 1.39 GiB
Duration : 1 h 36 min
Overall bit rate : 2 073 kb/s
Encoded date : UTC 2021-10-06 09:08:24
Writing application : mkvmerge v61.0.0 ('So') 64-bit
Writing library : libebml v1.4.2 + libmatroska v1.6.4
Cover : Yes
Attachments : Cover.jpg / Cover 2.jpg

Video
ID : 1
Format : AVC
Format/Info : Advanced Video Codec
Format profile : High@L4.1
Format settings : CABAC / 12 Ref Frames
Format settings, CABAC : Yes
Format settings, Reference : 12 frames
Codec ID : V_MPEG4/ISO/AVC
Duration : 1 h 36 min
Bit rate : 1 177 kb/s
Width : 1 024 pixels
Height : 428 pixels
Display aspect ratio : 2.40:1
Frame rate mode : Constant
Frame rate : 24.000 FPS
Color space : YUV
Chroma subsampling : 4:2:0
Bit depth : 8 bits
Scan type : Progressive
Bits/(Pixel*Frame) : 0.112
Stream size : 809 MiB (57%)
Title : -=DoMiNo=-
Writing library : x264 core 161 r3020 d198931
Encoding settings : cabac=1 / ref=12 / deblock=1:-3:-3 / analyse=0x3:0x133 / me=umh / subme=9 / psy=1 / psy_rd=1.00:0.00 / mixed_ref=1 / me_range=32 / chroma_me=1 / trellis=2 / 8x8dct=1 / cqm=0 / deadzone=21,11 / fast_pskip=0 / chroma_qp_offset=-2 / threads=24 / lookahead_threads=3 / sliced_threads=0 / nr=0 / decimate=0 / interlaced=0 / bluray_compat=0 / constrained_intra=0 / bframes=11 / b_pyramid=2 / b_adapt=2 / b_bias=0 / direct=3 / weightb=1 / open_gop=0 / weightp=2 / keyint=240 / keyint_min=24 / scenecut=40 / intra_refresh=0 / rc=2pass / mbtree=0 / bitrate=1177 / ratetol=1.0 / qcomp=0.60 / qpmin=0 / qpmax=69 / qpstep=4 / cplxblur=20.0 / qblur=0.5 / ip_ratio=1.40 / pb_ratio=1.30 / aq=1:1.00
Language : English
Default : Yes
Forced : No

Audio #1
ID : 2
Format : AC-3
Format/Info : Audio Coding 3
Commercial name : Dolby Digital
Codec ID : A_AC3
Duration : 1 h 36 min
Bit rate mode : Constant
Bit rate : 448 kb/s
Channel(s) : 6 channels
Channel layout : L R C LFE Ls Rs
Sampling rate : 48.0 kHz
Frame rate : 31.250 FPS (1536 SPF)
Compression mode : Lossy
Stream size : 308 MiB (22%)
Title : DUB
Language : Russian
Service kind : Complete Main
Default : Yes
Forced : No

Audio #2
ID : 3
Format : AC-3
Format/Info : Audio Coding 3
Commercial name : Dolby Digital
Codec ID : A_AC3
Duration : 1 h 36 min
Bit rate mode : Constant
Bit rate : 448 kb/s
Channel(s) : 6 channels
Channel layout : L R C LFE Ls Rs
Sampling rate : 48.0 kHz
Frame rate : 31.250 FPS (1536 SPF)
Compression mode : Lossy
Stream size : 308 MiB (22%)
Language : English
Service kind : Complete Main
Default : No
Forced : No

Text #1
ID : 4
Format : UTF-8
Codec ID : S_TEXT/UTF8
Codec ID/Info : UTF-8 Plain Text
Duration : 1 h 33 min
Bit rate : 3 b/s
Count of elements : 44
Stream size : 2.09 KiB (0%)
Title : Forced
Language : Russian
Default : Yes
Forced : No

Text #2
ID : 5
Format : UTF-8
Codec ID : S_TEXT/UTF8
Codec ID/Info : UTF-8 Plain Text
Duration : 1 h 33 min
Bit rate : 75 b/s
Count of elements : 1054
Stream size : 51.5 KiB (0%)
Language : Russian
Default : No
Forced : No

Text #3
ID : 6
Format : UTF-8
Codec ID : S_TEXT/UTF8
Codec ID/Info : UTF-8 Plain Text
Duration : 1 h 33 min
Bit rate : 73 b/s
Count of elements : 1040
Stream size : 50.3 KiB (0%)
Language : Ukrainian
Default : No
Forced : No

Text #4
ID : 7
Format : UTF-8
Codec ID : S_TEXT/UTF8
Codec ID/Info : UTF-8 Plain Text
Duration : 1 h 28 min
Bit rate : 65 b/s
Count of elements : 1379
Stream size : 42.6 KiB (0%)
Language : English
Default : No
Forced : No

pb.wtf



Скачать В твоем доме кто-то есть через торрент https://i115.fastpic.org/big/2021/1006/b8/352485d1c173321ad116e3bfd3e32bb8.jpg Скачать, смотреть онлайн В твоем доме кто-то есть бесплантно в хорошем качестве Описание: Группу школьников из небольшого американского городка преследует таинственный убийца в маске. Он терроризирует подростков и ... 10 10 4
Торрент: Зарегистрирован [2021-10-09 12:14] · скачан: 65 раз
Статус: √ проверено
Размер: 1.39 GB
Как cкачать? Как скачать В твоем доме кто-то есть через торрент | UTorrent

28-11-2019 20:33  

Отключить всю рекламу на сайте

    Дорогой пользователь! Огромная просьба, поблагодарите релизера, оцените раздачу и оставьте свои комментарий, если Вы скачали В твоем доме кто-то есть через торрент бесплатно!
    Комментировать посты могут только пользователи прошедшие не сложную регистрацию
    Показать сообщения:    

    В твоем доме кто-то есть через торрент
    Скачать бесплатно В твоем доме кто-то есть
    В твоем доме кто-то есть скачать торрент
    В твоем доме кто-то есть смотреть онлайн
    Cкачать фильм В твоем доме кто-то есть бесплатно
    В твоем доме кто-то есть скачать торрент в хорошем качестве
    В твоем доме кто-то есть смотреть онлайн бесплатно в хорошем качестве


    Вы не можете начинать темы
    Вы не можете отвечать на сообщения
    Вы не можете редактировать свои сообщения
    Вы не можете удалять свои сообщения
    Вы не можете голосовать в опросах
    Вы не можете прикреплять файлы к сообщениям
    Вы можете скачивать файлы