Присоединяйтесь к нам в Telegram!, здесь всегда актуальный адрес сайта, оперативная поддержка и многое другое!!

>

5.9

iTunes

7.4

iTunes

9.4

1 сезон

1

7.4

2 сезон

7.2

iTunes

7.3

1 сезон

13

6.1

iTunes

8.3

GOG

30

ULTIMATE

pack

9.9

Лицензия

ВАЖНО

ИГРА 18+

pack

7.3

RePack

MK11

7.7

RePack

jed

7.8

RePack

fifa19

8.5

RePack

RDR2

RePack

NEED FOR SPEED™ PAYBACK

5 сезон

9 сезон

Бесстыжие 9 сезон

Все сериалы

все сериалы на PB.wtf

RePack

FAR CRY 5

Anonymous, добрый вечер, мы катастрофически не успеваем собрать деньги на оплату серверов, помогите нам пожалуйста 5,10,15р., для нас важна любая помощь . В качестве благодарности мы отключим Вам всю рекламу на сайте (укажите свой ник в строку Ваше имя)!

×
  
Magnet ссылка

Восхождение пехотинца: Начало / Rise of the Footsoldier: Origins (Ник Неверн) [2021, Боевик, драма, криминал, WEB-DLRip-AVC] MVO [MUZOBOZ] от MediaBit pb.wtf

Восхождение пехотинца: Начало через торрент pb.wtf

Раздают: 6 [ 726 KB/s ]
Размер: 1.87 GB | Добавлен: 1 мес. 21 д. назад | Торрент скачан:161 раз
Смотреть онлайн Восхождение пехотинца: Начало | Скачать    Ребята, помогите собрать деньги на оплату серверов!!!

09-10-2021 16:43 Восхождение пехотинца: Начало Скачать торрент  


Восхождение пехотинца: Начало / Rise of the Footsoldier: Origins
Информация о фильме:
Название: Восхождение пехотинца: Начало
Оригинальное название: Rise of the Footsoldier: Origins
Год выхода: 2021
Жанр: Боевик, драма, криминал
Режиссер: Ник Неверн
В ролях: Винни Джонс, Крэйг Фэйрбрасс, Терри Стоун, Кит Аллен, Мишель Коллинз, Бронсон Уэбб, Сэм Гиттинс, П.Х. Мориарти, Эмма Батт, Билли Мюррэй

Описание: Повидавший виды солдат Тони Такер возвращается с Фолклендской войны в родную Англию. Озлобленный на весь мир, он стремительно зарабатывает себе репутацию в криминальных кругах Эссекса и создает крупную сеть распространения наркотиков, но вскоре сам погружается в наркозависимость, совершает череду ошибок и воочию лицезрит крах построенной им империи.



Страна: Великобритания
Студия: Empire PicturesHaymarket FilmsPlatinum Pictures
Продолжительность: 01:46:27
Перевод: Любительский (многоголосый, закадровый) - MUZOBOZ



Информация о файле:
Кодек: AVC
Формат: MKV
Качество: WEB-DLRip-AVC
Видео: MPEG-4 AVC, 1024x428, 24.000 fps, 1940 kbps
Аудио RU: AC3, 2 ch, 48 kHz, 192 kbps
Аудио EN: AC3, 6 ch, 48 kHz, 384 kbps
x264 info: frame I:1136 Avg QP:12.19 size: 60502
x264 info: frame P:38007 Avg QP:16.01 size: 20550
x264 info: frame B:114144 Avg QP:18.38 size: 6112
x264 info: consecutive B-frames: 3.2% 4.3% 9.7% 35.8% 14.5% 23.5% 4.0% 2.7% 0.5% 0.8% 0.9%
General
Unique ID : 146044118536137507011503446647302808841 (0x6DDF12F8CF5934DB2089CC2971046509)
Complete name : D:\uTorrent\Рипы wolf1245\Rise of the Footsoldier- Origins.2021.MVO.MUZOBOZ.WEB-DLRip-AVC.[wolf1245.MediaBit].mkv
Format : Matroska
Format version : Version 4
File size : 1.87 GiB
Duration : 1 h 46 min
Overall bit rate : 2 516 kb/s
Movie name : Rise of the Footsoldier: Origins.2021.MVO.MUZOBOZ.WEB-DLRip-AVC.[wolf1245.MediaBit]
Encoded date : UTC 2021-10-09 16:23:27
Writing application : mkvmerge v61.0.0 ('So') 64-bit
Writing library : libebml v1.4.2 + libmatroska v1.6.4

Video
ID : 1
Format : AVC
Format/Info : Advanced Video Codec
Format profile : High@L4.1
Format settings : CABAC / 12 Ref Frames
Format settings, CABAC : Yes
Format settings, Reference frames : 12 frames
Codec ID : V_MPEG4/ISO/AVC
Duration : 1 h 46 min
Bit rate : 1 940 kb/s
Width : 1 024 pixels
Height : 428 pixels
Display aspect ratio : 2.40:1
Frame rate mode : Constant
Frame rate : 24.000 FPS
Color space : YUV
Chroma subsampling : 4:2:0
Bit depth : 8 bits
Scan type : Progressive
Bits/(Pixel*Frame) : 0.184
Stream size : 1.44 GiB (77%)
Title : -=[wolf1245.MediaBit]=-
Writing library : x264 core 161 r3020 d198931
Encoding settings : cabac=1 / ref=12 / deblock=1:-3:-2 / analyse=0x3:0x133 / me=umh / subme=10 / psy=1 / psy_rd=1.00:0.05 / mixed_ref=1 / me_range=32 / chroma_me=1 / trellis=2 / 8x8dct=1 / cqm=0 / deadzone=21,11 / fast_pskip=1 / chroma_qp_offset=-3 / threads=10 / lookahead_threads=2 / sliced_threads=0 / nr=0 / decimate=1 / interlaced=0 / bluray_compat=0 / constrained_intra=0 / bframes=10 / b_pyramid=2 / b_adapt=2 / b_bias=0 / direct=3 / weightb=1 / open_gop=0 / weightp=2 / keyint=240 / keyint_min=24 / scenecut=40 / intra_refresh=0 / rc_lookahead=60 / rc=2pass / mbtree=1 / bitrate=1940 / ratetol=1.0 / qcomp=0.60 / qpmin=0 / qpmax=69 / qpstep=4 / cplxblur=20.0 / qblur=0.5 / vbv_maxrate=50000 / vbv_bufsize=62500 / nal_hrd=none / filler=0 / ip_ratio=1.40 / aq=3:0.80
Language : English
Default : Yes
Forced : No
Color range : Limited
Color primaries : BT.709
Transfer characteristics : BT.709
Matrix coefficients : BT.709

Audio #1
ID : 2
Format : AC-3
Format/Info : Audio Coding 3
Commercial name : Dolby Digital
Codec ID : A_AC3
Duration : 1 h 46 min
Bit rate mode : Constant
Bit rate : 192 kb/s
Channel(s) : 2 channels
Channel layout : L R
Sampling rate : 48.0 kHz
Frame rate : 31.250 FPS (1536 SPF)
Compression mode : Lossy
Stream size : 146 MiB (8%)
Title : [MVO] MUZOBOZ
Language : Russian
Service kind : Complete Main
Default : Yes
Forced : No

Audio #2
ID : 3
Format : AC-3
Format/Info : Audio Coding 3
Commercial name : Dolby Digital
Codec ID : A_AC3
Duration : 1 h 46 min
Bit rate mode : Constant
Bit rate : 384 kb/s
Channel(s) : 6 channels
Channel layout : L R C LFE Ls Rs
Sampling rate : 48.0 kHz
Frame rate : 31.250 FPS (1536 SPF)
Compression mode : Lossy
Stream size : 292 MiB (15%)
Title : British English
Language : English
Service kind : Complete Main
Default : No
Forced : No
Релиз от: &

Автор релиза:
pb.wtf



Скачать Восхождение пехотинца: Начало через торрент https://i115.fastpic.org/big/2021/1009/74/121d026c3d3ac02e904ae54db42ec174.jpg Скачать, смотреть онлайн Восхождение пехотинца: Начало бесплантно в хорошем качестве Описание: Повидавший виды солдат Тони Такер возвращается с Фолклендской войны в родную Англию. Озлобленный на весь мир, он стремительно ... 10 10 7
Торрент: Зарегистрирован [2021-10-09 16:43] · скачан: 161 раз
Статус: T временная
Размер: 1.87 GB
Как cкачать? Как скачать Восхождение пехотинца: Начало через торрент | UTorrent

28-11-2019 20:33  

Отключить всю рекламу на сайте

    Дорогой пользователь! Огромная просьба, поблагодарите релизера, оцените раздачу и оставьте свои комментарий, если Вы скачали Восхождение пехотинца: Начало через торрент бесплатно!
    Комментировать посты могут только пользователи прошедшие не сложную регистрацию
    Показать сообщения:    

    Восхождение пехотинца: Начало через торрент
    Скачать бесплатно Восхождение пехотинца: Начало
    Восхождение пехотинца: Начало скачать торрент
    Восхождение пехотинца: Начало смотреть онлайн
    Cкачать фильм Восхождение пехотинца: Начало бесплатно
    Восхождение пехотинца: Начало скачать торрент в хорошем качестве
    Восхождение пехотинца: Начало смотреть онлайн бесплатно в хорошем качестве


    Вы не можете начинать темы
    Вы не можете отвечать на сообщения
    Вы не можете редактировать свои сообщения
    Вы не можете удалять свои сообщения
    Вы не можете голосовать в опросах
    Вы не можете прикреплять файлы к сообщениям
    Вы можете скачивать файлы