Anonymous, добрый вечер, присоединяйтесь к нам в Telegram!, здесь всегда актуальный адрес сайта, оперативная поддержка и многое другое!

>

5.5

iTunes

7.4

iTunes

7.9

iTunes

1

7.7

1 сезон

6.8

iTunes

7.3

1 сезон

13

6.7

1 сезон

8.3

RePack

30

ULTIMATE

pack

9.9

Лицензия

ВАЖНО

ИГРА 18+

pack

7.3

RePack

MK11

7.7

RePack

jed

7.8

RePack

fifa19

8.5

RePack

RDR2

RePack

NEED FOR SPEED™ PAYBACK

4 сезон

9 сезон

Бесстыжие 9 сезон

Все сериалы

все сериалы на PB.wtf

RePack

FAR CRY 5

Anonymous, добрый вечер, мы катастрофически не успеваем собрать деньги на оплату серверов, помогите нам пожалуйста 5,10,15р., для нас важна любая помощь . В качестве благодарности мы отключим Вам всю рекламу на сайте (укажите свой ник в строку Ваше имя)!

×
  
Magnet ссылка

Девятый калибр / Calibro 9 (Тони Д’Анджело) [2020 г., боевик, триллер, криминал, WEB-DLRip, Дубляж "iTunes"] pb.wtf

Девятый калибр через торрент pb.wtf

Размер: 717 MB | Добавлен: 16 д. назад | Торрент скачан:21 раз
Смотреть онлайн Девятый калибр | Скачать    Ребята, помогите собрать деньги на оплату серверов!!!

09-10-2021 18:26 Девятый калибр Скачать торрент  

Девятый калибр / Calibro 9
Год выпуска: 2020
Страна: Италия, Бельгия / Minerva Pictures , Gapbusters , Rai Cinema
Жанр: боевик, триллер, криминал
Продолжительность: 01:37:59
Перевод: Дубляж (iTunes)

Режиссер: Тони Д’Анджело

rating

В ролях: Марко Боччи, Ксения Раппопорт, Алессио Бони, Микеле Плачидо, Барбара Буше, Андреа Арру, Маттиа Бизонни, Нильс Бокановский, Джессика Кресси, Пьетро Делле Пьяне

Описание: Фернандо Пьяцца — успешный адвокат с безупречной репутацией, в отличие от своего отца, у которого было богатое криминальное прошлое. Когда в результате мошенничества со счетов одного из преступных синдикатов пропадает 100 миллионов евро, подозрение падает на Фернандо. Он становится мишенью сразу для двух соперничающих мафиозных кланов. Фернандо должен любыми способами доказать свою непричастность, ведь на кону его жизнь и жизнь еще одно близкого ему человека.

Качество: WEB-DLRip
Формат: AVI
Видео кодек: DivX
Аудио кодек: MP3
Видео: 640x272 (2.35:1), 24.000 fps, DivX Codec 4.x ~885 kbps avg, 0.21 bit/pixel
Аудио: 48 kHz, MPEG Layer 3, 2 ch, ~128.00 kbps avg

Общее
Полное имя : G:\ФИЛЬМЫ\Девятый калибр.2020.D.WEB-DLRip.avi
Формат : AVI
Формат/Информация : Audio Video Interleave
Размер файла : 717 Мбайт
Продолжительность : 1 ч. 37 м.
Общий поток : 1 023 Кбит/сек
Программа кодирования : VirtualDubMod 1.5.10.3 | www.virtualdub-fr.org || (build 2550/release)
Библиотека кодирования : VirtualDubMod build 2550/release

Видео
Идентификатор : 0
Формат : MPEG-4 Visual
Профиль формата : Advanced Simple@L5
Настройки формата : BVOP2
Параметр BVOP формата : 2
Параметр QPel формата : Нет
Параметр GMC формата : Без точки перехода
Параметр матрицы формата : Default (MPEG)
Идентификатор кодека : DIVX
Идентификатор кодека/Информация : Project Mayo
Идентификатор кодека/Подсказка : DivX 4
Продолжительность : 1 ч. 37 м.
Битрейт : 886 Кбит/сек
Ширина : 640 пикселей
Высота : 272 пикселя
Соотношение сторон : 2,35:1
Частота кадров : 24,000 кадра/сек
Цветовое пространство : YUV
Субдискретизация насыщенности : 4:2:0
Битовая глубина : 8 бит
Тип развёртки : Прогрессивная
Метод сжатия : С потерями
Бит/(Пиксели*Кадры) : 0.212
Размер потока : 621 Мбайт (87%)
Библиотека кодирования : XviD 1.2.1 (UTC 2008-12-04)

Аудио
Идентификатор : 1
Формат : MPEG Audio
Версия формата : Version 1
Профиль формата : Layer 3
Настройки формата : Joint stereo / MS Stereo
Идентификатор кодека : 55
Идентификатор кодека/Подсказка : MP3
Продолжительность : 1 ч. 37 м.
Вид битрейта : Постоянный
Битрейт : 128 Кбит/сек
Каналы : 2 канала
Частота : 48,0 КГц
Частота кадров : 41,667 кадра/сек (1152 SPF)
Метод сжатия : С потерями
Размер потока : 89,7 Мбайт (13%)
Выравнивание : Соединение по промежуткам
Продолжительность промежутка : 42 мс. (1,00 видеокадр)
Время предзагрузки промежутка : 504 мс.
Библиотека кодирования : LAME3.99r
Настройки программы : -m j -V 4 -q 2 -lowpass 17 -b 128

Report created by : MediaInfoLib - v21.09
Report created on : UTC 2021-10-09 18:01:06

pb.wtf



Скачать Девятый калибр через торрент https://pic1.kartinco.top/new/img/2021-10/09/nyda1kjtvjv63i0va2jhi48ph.jpg Скачать, смотреть онлайн Девятый калибр бесплантно в хорошем качестве Описание: Фернандо Пьяцца — успешный адвокат с безупречной репутацией, в отличие от своего отца, у которого было богатое криминальное ... 8 10 3
Торрент: Зарегистрирован [2021-10-09 18:26] · скачан: 21 раз
Статус: √ проверено
Размер: 717 MB
Как cкачать? Как скачать Девятый калибр через торрент | UTorrent

% Раздел Тема Автор DL S | L
Фильмы 2019-2020 [DVDrip, WEB-DLRip, HDrip] (DUB, MVO) [ 1.46 GB ] Девятый калибр / Calibro 9 [2020 WEB-DLRip] bober100 Скачать
7 | 0

28-11-2019 20:33  

Отключить всю рекламу на сайте

    Дорогой пользователь! Огромная просьба, поблагодарите релизера, оцените раздачу и оставьте свои комментарий, если Вы скачали Девятый калибр через торрент бесплатно!
    Комментировать посты могут только пользователи прошедшие не сложную регистрацию
    Показать сообщения:    

    Девятый калибр через торрент
    Скачать бесплатно Девятый калибр
    Девятый калибр скачать торрент
    Девятый калибр смотреть онлайн
    Cкачать фильм Девятый калибр бесплатно
    Девятый калибр скачать торрент в хорошем качестве
    Девятый калибр смотреть онлайн бесплатно в хорошем качестве


    Вы не можете начинать темы
    Вы не можете отвечать на сообщения
    Вы не можете редактировать свои сообщения
    Вы не можете удалять свои сообщения
    Вы не можете голосовать в опросах
    Вы не можете прикреплять файлы к сообщениям
    Вы можете скачивать файлы