Присоединяйтесь к нам в Telegram!, здесь всегда актуальный адрес сайта, оперативная поддержка и многое другое!!

>

5.9

iTunes

7.4

iTunes

9.4

1 сезон

1

7.4

2 сезон

7.2

iTunes

7.3

1 сезон

13

6.1

iTunes

8.3

GOG

30

ULTIMATE

pack

9.9

Лицензия

ВАЖНО

ИГРА 18+

pack

7.3

RePack

MK11

7.7

RePack

jed

7.8

RePack

fifa19

8.5

RePack

RDR2

RePack

NEED FOR SPEED™ PAYBACK

5 сезон

9 сезон

Бесстыжие 9 сезон

Все сериалы

все сериалы на PB.wtf

RePack

FAR CRY 5

Anonymous, доброй ночи, мы катастрофически не успеваем собрать деньги на оплату серверов, помогите нам пожалуйста 5,10,15р., для нас важна любая помощь . В качестве благодарности мы отключим Вам всю рекламу на сайте (укажите свой ник в строку Ваше имя)!

×
  
Magnet ссылка

G. I. Joe. Бросок кобры: Снейк Айз / Snake Eyes: G.I. Joe Origins (Роберт Швентке) [2021, Фантастика, фэнтези, боевик, триллер, приключения, HDRip-AVC] DUB [Пифагор] от MediaBit pb.wtf

G. I. Joe. Бросок кобры: Снейк Айз через торрент pb.wtf

Раздают: 2 [ 0 KB/s ]
Размер: 2.42 GB | Добавлен: 1 мес. 17 д. назад | Торрент скачан:90 раз
Смотреть онлайн G. I. Joe. Бросок кобры: Снейк Айз | Скачать    Ребята, помогите собрать деньги на оплату серверов!!!

09-10-2021 20:10 G. I. Joe. Бросок кобры: Снейк Айз Скачать торрент  


G. I. Joe. Бросок кобры: Снейк Айз / Snake Eyes: G.I. Joe Origins
Информация о фильме:
Название: G. I. Joe. Бросок кобры: Снейк Айз
Оригинальное название: Snake Eyes: G.I. Joe Origins
Год выхода: 2021
Жанр: Фантастика, фэнтези, боевик, триллер, приключения
Режиссер: Роберт Швентке
В ролях: Генри Голдинг, Самара Уивинг, Урсула Корберо, Ико Уайс, Эндрю Кодзи, Харука Абэ, Стивен Аллерик, Питер Менса, Такехиро Хира, Самуэль Финци, Саймон Чин

Описание: Снейк Айз — самый загадочный и смертоносный член спецотряда G.I. Joe. Он всегда одет в черное, его лицо закрывает маска, и он никогда не разговаривает. Никто не знает, кто он и откуда. «G.I. Joe: Бросок кобры. Снейк Айз» — спин-офф франшизы «Бросок кобры» о самом загадочном и смертоносном члене специального отряда G.I. Joe.



Страна: Канада, США
Студия: Di Bonaventura Pictures, Hasbro Inc., Metro-Goldwyn-Mayer (MGM), Paramount Pictures, Skydance Productions
Продолжительность: 02:01:24
Перевод: Дублированный - Пифагор



Информация о файле:
Кодек: AVC
Формат: MKV
Качество: HDRip-AVC
Видео: MPEG-4 AVC, 1024x428, 23.976 fps, 1960 kbps
Аудио RU: AC3, 6 ch, 48 kHz, 448 kbps
Аудио EN: AC3, 6 ch, 48 kHz, 448 kbps
Субтитры: Русские (Forced, full), английские

x264 info: frame I:1401 Avg QP:12.91 size: 83883
x264 info: frame P:43939 Avg QP:17.05 size: 21999
x264 info: frame B:129323 Avg QP:20.63 size: 5414
x264 info: consecutive B-frames: 4.5% 5.0% 12.0% 20.6% 15.2% 32.0% 6.4% 1.8% 1.6% 0.3% 0.5%
General
Unique ID : 332249086660732841349277374913933061747 (0xF9F4D8B43150F7CB9106B7A14989AE73)
Complete name : D:\uTorrent\Рипы wolf1245\Snake Eyes- G.I. Joe Origins.2021.DUB.PIFAGOR.HDRip-AVC.[wolf1245.MediaBit].mkv
Format : Matroska
Format version : Version 4
File size : 2.42 GiB
Duration : 2 h 1 min
Overall bit rate : 2 857 kb/s
Movie name : Snake Eyes: G.I. Joe Origins.2021.DUB.PIFAGOR.HDRip-AVC.[wolf1245.MediaBit]
Encoded date : UTC 2021-10-09 19:54:28
Writing application : mkvmerge v61.0.0 ('So') 64-bit
Writing library : libebml v1.4.2 + libmatroska v1.6.4

Video
ID : 1
Format : AVC
Format/Info : Advanced Video Codec
Format profile : High@L4.1
Format settings : CABAC / 12 Ref Frames
Format settings, CABAC : Yes
Format settings, Reference frames : 12 frames
Codec ID : V_MPEG4/ISO/AVC
Duration : 2 h 1 min
Bit rate : 1 960 kb/s
Width : 1 024 pixels
Height : 428 pixels
Display aspect ratio : 2.40:1
Frame rate mode : Constant
Frame rate : 23.976 (24000/1001) FPS
Color space : YUV
Chroma subsampling : 4:2:0
Bit depth : 8 bits
Scan type : Progressive
Bits/(Pixel*Frame) : 0.187
Stream size : 1.66 GiB (69%)
Title : -=[wolf1245.MediaBit]=-
Writing library : x264 core 161 r3020 d198931
Encoding settings : cabac=1 / ref=12 / deblock=1:-3:-3 / analyse=0x3:0x133 / me=umh / subme=11 / psy=1 / psy_rd=1.00:0.07 / mixed_ref=1 / me_range=48 / chroma_me=1 / trellis=2 / 8x8dct=1 / cqm=0 / deadzone=21,11 / fast_pskip=1 / chroma_qp_offset=-3 / threads=10 / lookahead_threads=2 / sliced_threads=0 / nr=0 / decimate=1 / interlaced=0 / bluray_compat=0 / constrained_intra=0 / bframes=10 / b_pyramid=2 / b_adapt=2 / b_bias=0 / direct=3 / weightb=1 / open_gop=0 / weightp=2 / keyint=240 / keyint_min=24 / scenecut=40 / intra_refresh=0 / rc_lookahead=60 / rc=2pass / mbtree=1 / bitrate=1960 / ratetol=1.0 / qcomp=0.60 / qpmin=0 / qpmax=69 / qpstep=4 / cplxblur=20.0 / qblur=0.5 / vbv_maxrate=50000 / vbv_bufsize=62500 / nal_hrd=none / filler=0 / ip_ratio=1.40 / aq=3:0.80
Language : English
Default : Yes
Forced : No
Color range : Limited
Color primaries : BT.709
Matrix coefficients : BT.709

Audio #1
ID : 2
Format : AC-3
Format/Info : Audio Coding 3
Commercial name : Dolby Digital
Codec ID : A_AC3
Duration : 2 h 1 min
Bit rate mode : Constant
Bit rate : 448 kb/s
Channel(s) : 6 channels
Channel layout : L R C LFE Ls Rs
Sampling rate : 48.0 kHz
Frame rate : 31.250 FPS (1536 SPF)
Compression mode : Lossy
Stream size : 389 MiB (16%)
Title : Dub | PIFAGOR
Language : Russian
Service kind : Complete Main
Default : Yes
Forced : No

Audio #2
ID : 3
Format : AC-3
Format/Info : Audio Coding 3
Commercial name : Dolby Digital
Codec ID : A_AC3
Duration : 2 h 1 min
Bit rate mode : Constant
Bit rate : 448 kb/s
Channel(s) : 6 channels
Channel layout : L R C LFE Ls Rs
Sampling rate : 48.0 kHz
Frame rate : 31.250 FPS (1536 SPF)
Compression mode : Lossy
Stream size : 389 MiB (16%)
Title : Original
Language : English
Service kind : Complete Main
Default : No
Forced : No

Text #1
ID : 4
Format : UTF-8
Codec ID : S_TEXT/UTF8
Codec ID/Info : UTF-8 Plain Text
Duration : 1 h 59 min
Bit rate : 1 b/s
Count of elements : 25
Stream size : 1.21 KiB (0%)
Title : Forced
Language : Russian
Default : Yes
Forced : Yes

Text #2
ID : 5
Format : UTF-8
Codec ID : S_TEXT/UTF8
Codec ID/Info : UTF-8 Plain Text
Duration : 1 h 59 min
Bit rate : 42 b/s
Count of elements : 797
Stream size : 37.0 KiB (0%)
Title : Full
Language : Russian
Default : No
Forced : No

Text #3
ID : 6
Format : UTF-8
Codec ID : S_TEXT/UTF8
Codec ID/Info : UTF-8 Plain Text
Duration : 1 h 52 min
Bit rate : 26 b/s
Count of elements : 775
Stream size : 22.0 KiB (0%)
Title : Full
Language : English
Default : No
Forced : No

Menu
00:00:00.000 : :Chapter 01
00:10:17.367 : :Chapter 02
00:19:39.887 : :Chapter 03
00:28:50.062 : :Chapter 04
00:37:50.977 : :Chapter 05
00:43:39.867 : :Chapter 06
00:54:53.790 : :Chapter 07
01:03:18.920 : :Chapter 08
01:14:04.440 : :Chapter 09
01:23:59.117 : :Chapter 10
01:29:09.219 : :Chapter 11
01:36:39.293 : :Chapter 12
01:46:26.922 : :Chapter 13
01:53:51.533 : :Chapter 14
Релиз от: &

Автор релиза:
pb.wtf



Скачать G. I. Joe. Бросок кобры: Снейк Айз через торрент https://i115.fastpic.org/big/2021/1009/37/45a364a5e93d8eb0d3bbc59dbedad537.jpg Скачать, смотреть онлайн G. I. Joe. Бросок кобры: Снейк Айз бесплантно в хорошем качестве Описание: Снейк Айз — самый загадочный и смертоносный член спецотряда G.I. Joe. Он всегда одет в черное, его лицо закрывает маска, и он ... 10 10 3
Торрент: Зарегистрирован [2021-10-09 20:10] · скачан: 90 раз
Статус: √ проверено
Размер: 2.42 GB
Как cкачать? Как скачать G. I. Joe. Бросок кобры: Снейк Айз через торрент | UTorrent

28-11-2019 20:33  

Отключить всю рекламу на сайте

09-10-2021 21:54 G. I. Joe. Бросок кобры: Снейк Айз Скачать торрент  

какая же ШЛЯПА pb.wtf



    Дорогой пользователь! Огромная просьба, поблагодарите релизера, оцените раздачу и оставьте свои комментарий, если Вы скачали G. I. Joe. Бросок кобры: Снейк Айз через торрент бесплатно!
    Комментировать посты могут только пользователи прошедшие не сложную регистрацию
    Показать сообщения:    

    G. I. Joe. Бросок кобры: Снейк Айз через торрент
    Скачать бесплатно G. I. Joe. Бросок кобры: Снейк Айз
    G. I. Joe. Бросок кобры: Снейк Айз скачать торрент
    G. I. Joe. Бросок кобры: Снейк Айз смотреть онлайн
    Cкачать фильм G. I. Joe. Бросок кобры: Снейк Айз бесплатно
    G. I. Joe. Бросок кобры: Снейк Айз скачать торрент в хорошем качестве
    G. I. Joe. Бросок кобры: Снейк Айз смотреть онлайн бесплатно в хорошем качестве


    Вы не можете начинать темы
    Вы не можете отвечать на сообщения
    Вы не можете редактировать свои сообщения
    Вы не можете удалять свои сообщения
    Вы не можете голосовать в опросах
    Вы не можете прикреплять файлы к сообщениям
    Вы можете скачивать файлы