Достать ножи: Стеклянная луковица

MVO

Добыча

Дубляж

Уэнсдэй

1 сезон

Тор

Дубляж

13 клиническая

1 сезон

Жестокая ночь

MVO

Одни из нас

1 сезон

Deluxe

pack

Рекомендуем

30

Пиратка

ВАЖНО

ВАЖНО

Ghostwire

Пиратка

jed

RePack

nioh2

RePack

RDR2

RePack

NEED FOR SPEED™ PAYBACK

RePack

скачать торрент

Кинопоиск HD

Острые козырьки 6 сезон

6 сезон

FAR CRY 6

RePack

скачать торрент

Лицензия

скачать торрент

MVO

1

1 сезон

скачать торрент

1 сезон

скачать торрент

Лицензия

  

Кодекс киллера / The Protégé / The Protege (Мартин Кэмпбелл) [2021, Боевик, триллер, криминал, BD Remux 1080p] Дубляж [iTunes]

Кодекс киллера через торрент pb.wtf

Раздают: 1 [ 0 KB/s ]
Размер: 20.42 GB | Добавлен: 1 год 3 мес. назад | Торрент скачан:38 раз
Смотреть онлайн | Скачать | Поддержите нас   

10-10-2021 02:36 Кодекс киллера Скачать торрент  

Кодекс киллера | The Protégé | The Protege
Год выпуска: 2021
Страна: США, Великобритания
Выпущено: Arthur Sarkissian Productions, Campbell Grobman Films, Fourteen Films, Ingenious Media, Millennium Media, Seven Stars Film Studios, Signature Pictures
Жанр: Боевик, триллер, криминал
Продолжительность: 01:49:13
Перевод: Дублированный | iTunes
Субтитры: Русские (Full)

Режиссер: Мартин Кэмпбелл

rating

В ролях: Майкл Китон, Мэгги Кью, Сэмюэл Л. Джексон, Ори Феффер, Мадалина Анеа, Флорин Пьерсик мл., Кэролайн Лонк, Гамба Кол, Велизар Бинев, Екатерина Бейкер

Описание: Героиня триллера «Кодекс киллера» — девушка-хакер, которая вынуждена скрываться вместе со своими подельниками после того, как у них случайно оказались деньги криминального босса.

Качество: BD Remux 1080p
Формат: MKV

Видео: MPEG-4 AVC, 24.5 Mb/s, 1920x1080, 23.976 fps
Аудио #01: 48 kHz, AC3, 5.1, 384 Kbps | Дублированный | iTunes | RUS |
Аудио #02: 48 kHz, DTS-HD MA, 5.1, 1897 Kbps | Оригинал | ENG |
скриншот  скриншот  скриншот  скриншот  

Complete name : Kodeks.killera.2021.BDRemux.1080p.ELEKTRI4KA.UNIONGANG.mkv
Format : Matroska
Format version : Version 4
File size : 20.4 GiB
Duration : 1 h 49 min
Overall bit rate mode : Variable
Overall bit rate : 26.8 Mb/s
Movie name : Kodeks.killera.2021.BDRemux.1080p.ELEKTRI4KA.UNIONGANG.
Encoded date : UTC 2021-10-08 11:35:34
Writing application : mkvmerge v8.3.0 ('Over the Horizon') 32bit
Writing library : libebml v1.3.1 + libmatroska v1.4.2

Video
ID : 1
Format : AVC
Format/Info : Advanced Video Codec
Format profile : [email protected]
Format settings : CABAC / 4 Ref Frames
Format settings, CABAC : Yes
Format settings, Reference frames : 4 frames
Codec ID : V_MPEG4/ISO/AVC
Duration : 1 h 49 min
Bit rate mode : Variable
Bit rate : 24.5 Mb/s
Maximum bit rate : 35.0 Mb/s
Width : 1 920 pixels
Height : 1 080 pixels
Display aspect ratio : 16:9
Frame rate mode : Constant
Frame rate : 23.976 (24000/1001) FPS
Standard : NTSC
Color space : YUV
Chroma subsampling : 4:2:0
Bit depth : 8 bits
Scan type : Progressive
Bits/(Pixel*Frame) : 0.493
Stream size : 18.7 GiB (91%)
Default : Yes
Forced : No
Color range : Limited
Color primaries : BT.709
Transfer characteristics : BT.709
Matrix coefficients : BT.709

Audio #1
ID : 2
Format : AC-3
Format/Info : Audio Coding 3
Commercial name : Dolby Digital
Codec ID : A_AC3
Duration : 1 h 49 min
Bit rate mode : Constant
Bit rate : 384 kb/s
Channel(s) : 6 channels
Channel layout : L R C LFE Ls Rs
Sampling rate : 48.0 kHz
Frame rate : 31.250 FPS (1536 SPF)
Compression mode : Lossy
Stream size : 300 MiB (1%)
Title : Дубляж (iTunes)
Language : Russian
Service kind : Complete Main
Default : Yes
Forced : Yes

Audio #2
ID : 3
Format : DTS XLL
Format/Info : Digital Theater Systems
Commercial name : DTS-HD Master Audio
Codec ID : A_DTS
Duration : 1 h 49 min
Bit rate mode : Variable
Bit rate : 1 897 kb/s
Channel(s) : 6 channels
Channel layout : C L R Ls Rs LFE
Sampling rate : 48.0 kHz
Frame rate : 93.750 FPS (512 SPF)
Bit depth : 16 bits
Compression mode : Lossless
Stream size : 1.45 GiB (7%)
Title : Original
Language : English
Default : No
Forced : No

Text
ID : 4
Format : UTF-8
Codec ID : S_TEXT/UTF8
Codec ID/Info : UTF-8 Plain Text
Duration : 1 h 37 min
Bit rate : 48 b/s
Count of elements : 780
Stream size : 34.8 KiB (0%)
Title : Full
Language : Russian
Default : Yes
Forced : No

Menu
00:00:00.000 : :Chapter
00:11:18.094 : :Chapter
00:20:51.541 : :Chapter
00:29:48.286 : :Chapter
00:38:38.524 : :Chapter
00:46:42.049 : :Chapter
00:57:01.126 : :Chapter
01:05:41.687 : :Chapter
01:14:30.424 : :Chapter
01:24:01.953 : :Chapter
01:33:25.975 : :Chapter
01:40:32.776 : :Chapter




Скачать Кодекс киллера через торрент https://c.radikal.ru/c21/2110/50/ba0855768d02.jpg Скачать, смотреть онлайн Кодекс киллера бесплантно в хорошем качестве Описание: Героиня триллера «Кодекс киллера» — девушка-хакер, которая вынуждена скрываться вместе со своими подельниками после того, как у ... 8.8 10 5
Торрент: Зарегистрирован [2021-10-10 02:36] · скачан: 38 раз
Статус: √ проверено
Размер: 20.42 GB
Как cкачать? Как скачать Кодекс киллера через торрент | UTorrent

% Раздел Тема Автор DL S | L
Фильмы 2021 [DVDrip, WEB-DLRip, HDrip] (DUB, MVO) [ 2.13 GB ] Кодекс киллера / The Protégé / The Protege | Лицензия | BDRip Twi7ter Скачать
3 | 0
Фильмы 2021 [DVDrip, WEB-DLRip, HDrip] (DUB, MVO) [ 1.41 GB ] Кодекс киллера / The Protégé / The Protege | Лицензия | BDRip Twi7ter Скачать
10 | 1
Ultra HD (UHD: 2K, 4K, 8K) [ 68.23 GB ] Кодекс киллера / The Protégé / The Protege | iTunes | 2160p, (Dolby Vision bober100 Скачать
2 | 1
Ultra HD (UHD: 2K, 4K, 8K) [ 58.54 GB ] Кодекс киллера / The Protégé / The Protege | iTunes | 2160p, (Dolby Vision Profile 8 bober100 Скачать
1 | 0
Фильмы 2021 [DVDrip, WEB-DLRip, HDrip] (DUB, MVO) [ 2.5 GB ] Кодекс киллера / The Protege | iTunes | HDRip-AVC bober100 Скачать
2 | 0
Фильмы [HD 720p, 1080p] (Хороший звук DUB, MVO) [ 8.72 GB ] Кодекс киллера / The Protégé / The Protege | iTunes | 1080p bober100 Скачать
2 | 0
Фильмы 2021 [DVDrip, WEB-DLRip, HDrip] (DUB, MVO) [ 745 MB ] Кодекс киллера / The Protege | iTunes | BDRip bober100 Скачать
1 | 0

28-11-2019 20:33  


Отключить вcю реклaмy на сайте, в т.ч. и в плеере онлайн просмотра!

    Дорогой пользователь! Огромная просьба, поблагодарите релизера, оцените раздачу и оставьте свои комментарий, если Вы скачали Кодекс киллера через торрент бесплатно!!
    Комментировать посты могут только пользователи прошедшие не сложную регистрацию
    Показать сообщения:    


    Кодекс киллера через торрент
    Скачать бесплатно Кодекс киллера
    Кодекс киллера скачать торрент
    Кодекс киллера смотреть онлайн
    Cкачать фильм Кодекс киллера бесплатно
    Кодекс киллера скачать торрент в хорошем качестве
    Кодекс киллера смотреть онлайн бесплатно в хорошем качестве
    Вы не можете начинать темы
    Вы не можете отвечать на сообщения
    Вы не можете редактировать свои сообщения
    Вы не можете удалять свои сообщения
    Вы не можете голосовать в опросах
    Вы не можете прикреплять файлы к сообщениям
    Вы можете скачивать файлы
    Кодекс киллера / The Protégé / The Protege [2021, Боевик, триллер, криминал, BD Remux 1080p] Дубляж [iTunes] смотреть онлайн, скачать торрент picoco.icu