Достать ножи: Стеклянная луковица

MVO

Добыча

Дубляж

Уэнсдэй

1 сезон

Тор

Дубляж

13 клиническая

1 сезон

Жестокая ночь

MVO

Одни из нас

1 сезон

Deluxe

pack

Рекомендуем

30

Пиратка

ВАЖНО

ВАЖНО

Ghostwire

Пиратка

jed

RePack

nioh2

RePack

RDR2

RePack

NEED FOR SPEED™ PAYBACK

RePack

скачать торрент

Кинопоиск HD

Острые козырьки 6 сезон

6 сезон

FAR CRY 6

RePack

скачать торрент

Лицензия

скачать торрент

MVO

1

1 сезон

скачать торрент

1 сезон

скачать торрент

Лицензия

  

Кодекс киллера / The Protege (Мартин Кэмпбелл) [2021, Боевик, триллер, криминал, HDRip-AVC] Дубляж [iTunes] +AVO [М. Яроцкий (kyberpunk)]

Кодекс киллера через торрент pb.wtf

Раздают: 1 [ 0 KB/s ]
Размер: 2.5 GB | Добавлен: 1 год 3 мес. назад | Торрент скачан:115 раз
Смотреть онлайн | Скачать | Поддержите нас   

10-10-2021 04:22 Кодекс киллера Скачать торрент  

Кодекс киллера | The Protege
Год выпуска: 2021
Страна: США, Великобритания
Выпущено: Arthur Sarkissian Productions, Campbell Grobman Films, Fourteen Films, Ingenious Media, Millennium Media, Seven Stars Film Studios, Signature Pictures
Жанр: Боевик, триллер, криминал
Продолжительность: 01:49:13
Перевод:
#1: Дублированный | iTunes
#2: Авторский | М. Яроцкий (kyberpunk)
Субтитры: Русские (полные), английские (полные)

Режиссер: Мартин Кэмпбелл

rating

В ролях: Майкл Китон, Мэгги Кью, Сэмюэл Л. Джексон, Ори Феффер, Мадалина Анеа, Флорин Пьерсик мл., Кэролайн Лонк, Гамба Кол, Велизар Бинев, Екатерина Бейкер

Описание: Героиня триллера «Кодекс киллера» — девушка-хакер, которая вынуждена скрываться вместе со своими подельниками после того, как у них случайно оказались деньги криминального босса.

Качество: HDRip-AVC
Формат: MKV

Видео: MPEG-4, 1024x426 at 23.976 fps, [email protected], ~2000 kbps
Аудио #01: 48 kHz, AC3, 5.1, 384 Kbps | Дублированный | iTunes | RUS |
Аудио #02: 48 kHz, AC3, 5.1, 448 Kbps | Авторский | М. Яроцкий (kyberpunk) | RUS |
Аудио #03: 48 kHz, AC3, 5.1, 448 Kbps | Оригинал | ENG |
скриншот  скриншот  скриншот  скриншот  скриншот  

x264 info: frame I:1311 Avg QP:13.78 size: 71926
x264 info: frame P:34646 Avg QP:16.60 size: 23174
x264 info: frame B:121147 Avg QP:17.72 size: 6095

General
Unique ID : 5670331003490625080535986841923679626 (0x44410E72C4DCCA2EC064A53DB04F58A)
Complete name : E:The.Protege.2021.HDRip-AVC.mkv
Format : Matroska
Format version : Version 4
File size : 2.50 GiB
Duration : 1 h 49 min
Overall bit rate : 3 279 kb/s
Encoded date : UTC 2021-10-08 17:50:23
Writing application : mkvmerge v61.0.0 ('So') 64-bit
Writing library : libebml v1.4.2 + libmatroska v1.6.4
Cover : Yes
Attachments : Cover.jpg / Cover 2.jpg

Video
ID : 1
Format : AVC
Format/Info : Advanced Video Codec
Format profile : [email protected]
Format settings : CABAC / 12 Ref Frames
Format settings, CABAC : Yes
Format settings, Reference : 12 frames
Codec ID : V_MPEG4/ISO/AVC
Duration : 1 h 49 min
Bit rate : 2 000 kb/s
Width : 1 024 pixels
Height : 426 pixels
Display aspect ratio : 2.40:1
Frame rate mode : Constant
Frame rate : 23.976 (24000/1001) FPS
Color space : YUV
Chroma subsampling : 4:2:0
Bit depth : 8 bits
Scan type : Progressive
Bits/(Pixel*Frame) : 0.191
Stream size : 1.52 GiB (61%)
Title : -=DoMiNo=-
Writing library : x264 core 161 r3020 d198931
Encoding settings : cabac=1 / ref=12 / deblock=1:-3:-3 / analyse=0x3:0x133 / me=umh / subme=9 / psy=1 / psy_rd=1.00:0.05 / mixed_ref=1 / me_range=32 / chroma_me=1 / trellis=2 / 8x8dct=1 / cqm=0 / deadzone=21,11 / fast_pskip=0 / chroma_qp_offset=-3 / threads=24 / lookahead_threads=3 / sliced_threads=0 / nr=0 / decimate=0 / interlaced=0 / bluray_compat=0 / constrained_intra=0 / bframes=11 / b_pyramid=2 / b_adapt=2 / b_bias=0 / direct=3 / weightb=1 / open_gop=0 / weightp=2 / keyint=240 / keyint_min=24 / scenecut=40 / intra_refresh=0 / rc_lookahead=60 / rc=2pass / mbtree=0 / bitrate=2000 / ratetol=1.0 / qcomp=0.60 / qpmin=0 / qpmax=69 / qpstep=4 / cplxblur=20.0 / qblur=0.5 / vbv_maxrate=50000 / vbv_bufsize=50000 / nal_hrd=none / filler=0 / ip_ratio=1.40 / pb_ratio=1.30 / aq=1:1.00
Language : German
Default : Yes
Forced : No

Audio #1
ID : 2
Format : AC-3
Format/Info : Audio Coding 3
Commercial name : Dolby Digital
Codec ID : A_AC3
Duration : 1 h 49 min
Bit rate mode : Constant
Bit rate : 384 kb/s
Channel(s) : 6 channels
Channel layout : L R C LFE Ls Rs
Sampling rate : 48.0 kHz
Frame rate : 31.250 FPS (1536 SPF)
Compression mode : Lossy
Stream size : 300 MiB (12%)
Title : Дубляж | iTunes
Language : Russian
Service kind : Complete Main
Default : Yes
Forced : Yes

Audio #2
ID : 3
Format : AC-3
Format/Info : Audio Coding 3
Commercial name : Dolby Digital
Codec ID : A_AC3
Duration : 1 h 49 min
Bit rate mode : Constant
Bit rate : 448 kb/s
Channel(s) : 6 channels
Channel layout : L R C LFE Ls Rs
Sampling rate : 48.0 kHz
Frame rate : 31.250 FPS (1536 SPF)
Compression mode : Lossy
Stream size : 350 MiB (14%)
Title : AVO | М. Яроцкий
Language : Russian
Service kind : Complete Main
Default : No
Forced : No

Audio #3
ID : 4
Format : AC-3
Format/Info : Audio Coding 3
Commercial name : Dolby Digital
Codec ID : A_AC3
Duration : 1 h 49 min
Bit rate mode : Constant
Bit rate : 448 kb/s
Channel(s) : 6 channels
Channel layout : L R C LFE Ls Rs
Sampling rate : 48.0 kHz
Frame rate : 31.250 FPS (1536 SPF)
Compression mode : Lossy
Stream size : 350 MiB (14%)
Language : English
Service kind : Complete Main
Default : No
Forced : No

Text #1
ID : 5
Format : UTF-8
Codec ID : S_TEXT/UTF8
Codec ID/Info : UTF-8 Plain Text
Duration : 1 h 37 min
Bit rate : 48 b/s
Count of elements : 780
Stream size : 34.8 KiB (0%)
Title : Full
Language : Russian
Default : No
Forced : No

Text #2
ID : 6
Format : UTF-8
Codec ID : S_TEXT/UTF8
Codec ID/Info : UTF-8 Plain Text
Duration : 1 h 37 min
Bit rate : 36 b/s
Count of elements : 800
Stream size : 26.3 KiB (0%)
Language : English
Default : No
Forced : No

Menu
00:00:00.000 : :Chapter
00:11:18.094 : :Chapter
00:20:51.541 : :Chapter
00:29:48.286 : :Chapter
00:38:38.524 : :Chapter
00:46:42.049 : :Chapter
00:57:01.126 : :Chapter
01:05:41.687 : :Chapter
01:14:30.424 : :Chapter
01:24:01.953 : :Chapter
01:33:25.975 : :Chapter
01:40:32.776 : :Chapter




Скачать Кодекс киллера через торрент https://c.radikal.ru/c21/2110/50/ba0855768d02.jpg Скачать, смотреть онлайн Кодекс киллера бесплантно в хорошем качестве Описание: Героиня триллера «Кодекс киллера» — девушка-хакер, которая вынуждена скрываться вместе со своими подельниками после того, как у ... 10 10 4
Торрент: Зарегистрирован [2021-10-10 04:22] · скачан: 115 раз
Статус: √ проверено
Размер: 2.5 GB
Как cкачать? Как скачать Кодекс киллера через торрент | UTorrent

% Раздел Тема Автор DL S | L
Фильмы 2021 [DVDrip, WEB-DLRip, HDrip] (DUB, MVO) [ 2.13 GB ] Кодекс киллера / The Protégé / The Protege | Лицензия | BDRip Twi7ter Скачать
5 | 0
Фильмы 2021 [DVDrip, WEB-DLRip, HDrip] (DUB, MVO) [ 1.41 GB ] Кодекс киллера / The Protégé / The Protege | Лицензия | BDRip Twi7ter Скачать
5 | 0
Ultra HD (UHD: 2K, 4K, 8K) [ 68.23 GB ] Кодекс киллера / The Protégé / The Protege | iTunes | 2160p, (Dolby Vision bober100 Скачать
2 | 0
Ultra HD (UHD: 2K, 4K, 8K) [ 58.54 GB ] Кодекс киллера / The Protégé / The Protege | iTunes | 2160p, (Dolby Vision Profile 8 bober100 Скачать
1 | 0
Фильмы (Blu-ray, BD-Remux, HDDVD) [ 20.42 GB ] Кодекс киллера / The Protégé / The Protege | iTunes | BD Remux 1080p bober100 Скачать
1 | 0
Фильмы [HD 720p, 1080p] (Хороший звук DUB, MVO) [ 8.72 GB ] Кодекс киллера / The Protégé / The Protege | iTunes | 1080p bober100 Скачать
2 | 0
Фильмы 2021 [DVDrip, WEB-DLRip, HDrip] (DUB, MVO) [ 745 MB ] Кодекс киллера / The Protege | iTunes | BDRip bober100 Скачать
1 | 0

28-11-2019 20:33  


Отключить вcю реклaмy на сайте, в т.ч. и в плеере онлайн просмотра!

    Дорогой пользователь! Огромная просьба, поблагодарите релизера, оцените раздачу и оставьте свои комментарий, если Вы скачали Кодекс киллера через торрент бесплатно!!
    Комментировать посты могут только пользователи прошедшие не сложную регистрацию
    Показать сообщения:    


    Кодекс киллера через торрент
    Скачать бесплатно Кодекс киллера
    Кодекс киллера скачать торрент
    Кодекс киллера смотреть онлайн
    Cкачать фильм Кодекс киллера бесплатно
    Кодекс киллера скачать торрент в хорошем качестве
    Кодекс киллера смотреть онлайн бесплатно в хорошем качестве
    Вы не можете начинать темы
    Вы не можете отвечать на сообщения
    Вы не можете редактировать свои сообщения
    Вы не можете удалять свои сообщения
    Вы не можете голосовать в опросах
    Вы не можете прикреплять файлы к сообщениям
    Вы можете скачивать файлы
    Кодекс киллера / The Protege [2021, Боевик, триллер, криминал, HDRip-AVC] Дубляж [iTunes] +AVO [М. Яроцкий ] смотреть онлайн, скачать торрент picoco.icu